<?xml version="1.0" standalone="no"?>
<!DOCTYPE svg PUBLIC "-//W3C//DTD SVG 1.1//EN" "http://www.w3.org/Graphics/SVG/1.1/DTD/svg11.dtd" >
<svg xmlns="http://www.w3.org/2000/svg">
<metadata>Generated by IcoMoon</metadata>
<defs>
<font id="icomoon" horiz-adv-x="1024">
<font-face units-per-em="1024" ascent="960" descent="-64" />
<missing-glyph horiz-adv-x="1024" />
<glyph unicode="&#x20;" horiz-adv-x="512" d="" />
<glyph unicode="&#xe900;" glyph-name="facebook" d="M628.364 764.509h158.255v195.491h-158.255c-134.982-4.655-242.036-121.018-237.382-256v-97.745h-153.6v-195.491h158.255v-474.764h195.491v474.764h195.491v195.491h-195.491v102.4c0 32.582 18.618 55.855 37.236 55.855z" />
<glyph unicode="&#xe901;" glyph-name="twitter" d="M1019.345 764.509c-37.236-18.618-79.127-27.927-121.018-32.582 41.891 27.927 74.473 65.164 93.091 116.364-41.891-23.273-83.782-41.891-130.327-51.2-79.127 83.782-209.455 88.436-293.236 9.309-41.891-37.236-65.164-93.091-65.164-153.6 0-13.964 0-32.582 4.655-46.545-167.564 9.309-325.818 88.436-428.218 218.764-60.509-97.745-32.582-218.764 60.509-279.273-32.582 0-65.164 9.309-93.091 27.927v-4.655c0-97.745 69.818-186.182 167.564-204.8-32.582-9.309-65.164-9.309-93.091-4.655 23.273-83.782 102.4-144.291 190.836-144.291-74.473-55.855-162.909-88.436-260.655-88.436-18.618 0-32.582 0-51.2 4.655 279.273-181.527 646.982-97.745 823.855 176.873 60.509 97.745 93.091 204.8 93.091 321.164 0 9.309 0 18.618 0 27.927 41.891 27.927 74.473 65.164 102.4 107.055z" />
<glyph unicode="&#xe902;" glyph-name="instagram" d="M512 852.945c130.327 0 148.945 0 200.145-4.655 32.582 0 60.509-4.655 93.091-18.618 23.273-9.309 41.891-18.618 55.855-37.236 18.618-13.964 27.927-37.236 37.236-55.855 9.309-27.927 18.618-60.509 18.618-93.091 4.655-51.2 4.655-69.818 4.655-200.145s0-148.945-4.655-200.145c0-32.582-4.655-60.509-18.618-93.091-18.618-41.891-51.2-79.127-93.091-93.091-27.927-9.309-60.509-18.618-93.091-18.618-51.2 0-69.818-4.655-200.145-4.655s-148.945 0-200.145 4.655c-32.582 0-60.509 4.655-93.091 18.618-41.891 18.618-79.127 51.2-93.091 93.091-9.309 27.927-18.618 60.509-18.618 93.091-4.655 51.2-4.655 69.818-4.655 200.145s0 148.945 4.655 200.145c0 32.582 4.655 60.509 18.618 93.091 18.618 41.891 51.2 79.127 93.091 93.091 27.927 9.309 60.509 18.618 93.091 18.618 51.2 4.655 69.818 4.655 200.145 4.655zM512 941.382c-134.982 0-148.945 0-204.8-4.655-37.236 0-79.127-9.309-116.364-23.273-69.818-23.273-121.018-74.473-144.291-144.291-13.964-37.236-23.273-79.127-23.273-116.364-4.655-55.855-4.655-69.818-4.655-204.8s0-148.945 4.655-204.8c0-41.891 9.309-79.127 23.273-121.018 27.927-65.164 79.127-116.364 144.291-144.291 37.236-13.964 79.127-23.273 121.018-23.273 51.2-4.655 69.818-4.655 204.8-4.655s148.945 0 204.8 4.655c41.891 0 79.127 9.309 121.018 23.273 65.164 23.273 116.364 79.127 144.291 144.291 13.964 37.236 23.273 79.127 23.273 121.018 4.655 51.2 4.655 69.818 4.655 204.8s0 148.945-4.655 204.8c0 41.891-9.309 79.127-23.273 121.018-13.964 32.582-32.582 60.509-55.855 88.436-23.273 23.273-55.855 46.545-88.436 55.855-37.236 13.964-79.127 23.273-121.018 23.273-60.509 0-74.473 0-209.455 0zM493.382 699.345c-139.636 0-251.345-111.709-251.345-251.345s111.709-251.345 251.345-251.345c139.636 0 251.345 111.709 251.345 251.345 4.655 139.636-111.709 251.345-251.345 251.345 0 0 0 0 0 0zM493.382 285.091c-88.436 0-162.909 74.473-162.909 162.909s74.473 162.909 162.909 162.909 167.564-69.818 167.564-162.909c0 0 0 0 0 0 0-88.436-74.473-162.909-167.564-162.909 0 0 0 0 0 0zM870.4 713.309c0-32.582-27.927-60.509-60.509-60.509s-55.855 27.927-55.855 60.509 27.927 60.509 60.509 60.509c0 0 0 0 0 0 27.927-4.655 55.855-27.927 55.855-60.509z" />
<glyph unicode="&#xe903;" glyph-name="pinterest" d="M302.545-17.455c-237.382 102.4-358.4 367.709-279.273 614.4 83.782 269.964 372.364 418.909 637.673 335.127 269.964-83.782 418.909-372.364 335.127-637.673-4.655-18.618-9.309-32.582-18.618-46.545-93.091-237.382-358.4-363.055-605.091-288.582 13.964 41.891 32.582 79.127 46.545 121.018s23.273 83.782 32.582 125.673c83.782-97.745 228.073-60.509 293.236 9.309 55.855 55.855 93.091 134.982 102.4 214.109 13.964 74.473 0 153.6-41.891 218.764-55.855 83.782-144.291 134.982-242.036 139.636-102.4 13.964-214.109-23.273-297.891-97.745-88.436-74.473-121.018-200.145-88.436-307.2 9.309-46.545 41.891-83.782 83.782-102.4 23.273-9.309 32.582-9.309 37.236 18.618 0 4.655 4.655 9.309 4.655 13.964 9.309 18.618 4.655 41.891-9.309 55.855-32.582 46.545-37.236 107.055-13.964 162.909 32.582 97.745 121.018 162.909 223.418 162.909 27.927 0 55.855 0 79.127-4.655 83.782-13.964 144.291-83.782 144.291-167.564 4.655-69.818-9.309-144.291-41.891-204.8-18.618-41.891-51.2-69.818-97.745-83.782-41.891-13.964-88.436 9.309-102.4 51.2-4.655 18.618-4.655 32.582 0 51.2 13.964 46.545 27.927 88.436 37.236 134.982 4.655 18.618 4.655 37.236 4.655 60.509 0 37.236-32.582 60.509-69.818 55.855-9.309 0-18.618 0-23.273-4.655-41.891-23.273-65.164-65.164-65.164-111.709 0-27.927 4.655-55.855 9.309-79.127 0-9.309 4.655-18.618 0-27.927-23.273-93.091-46.545-190.836-65.164-283.927-4.655-37.236-4.655-65.164-9.309-97.745z" />
<glyph unicode="&#xe904;" glyph-name="chevron-down" horiz-adv-x="1660" d="M193.988 960l-193.988-193.988 830.012-830.012 830.012 830.012-193.988 193.988-636.025-632.845-636.025 632.845z" />
<glyph unicode="&#xe905;" glyph-name="chevron-up" horiz-adv-x="1660" d="M830.012 568.845l636.025-632.845 193.988 193.988-830.012 830.012-830.012-830.012 193.988-193.988 636.025 632.845z" />
<glyph unicode="&#xe906;" glyph-name="chevron-left" horiz-adv-x="632" d="M631.663 840.337l-119.663 119.663-512-512 512-512 119.663 119.663-390.375 392.337 390.375 392.337z" />
<glyph unicode="&#xe907;" glyph-name="chevron-right" horiz-adv-x="632" d="M390.375 448l-390.375-392.337 119.663-119.663 512 512-512 512-119.663-119.663 390.375-392.337z" />
<glyph unicode="&#xe908;" glyph-name="minus" d="M1024 518.275c0 20.078-13.386 33.464-33.464 33.464h-957.072c-20.078 0-33.464-20.078-33.464-33.464v-133.856c0-26.771 13.386-40.157 33.464-40.157h950.379c6.693 0 20.078 6.693 26.771 6.693 6.693 6.693 6.693 13.386 6.693 26.771l6.693 140.549z" />
<glyph unicode="&#xe909;" glyph-name="add" d="M1024 518.275c0 20.078-13.386 33.464-33.464 33.464h-374.797v374.797c0 20.078-13.386 33.464-33.464 33.464h-133.856c-20.078 0-40.157-13.386-40.157-33.464v-374.797h-374.797c-20.078 0-33.464-20.078-33.464-33.464v-133.856c0-26.771 13.386-40.157 33.464-40.157h374.797v-374.797c0-20.078 13.386-33.464 33.464-33.464h133.856c20.078 0 33.464 13.386 33.464 33.464v374.797h374.797c6.693 0 20.078 6.693 26.771 6.693 6.693 6.693 6.693 13.386 6.693 26.771l6.693 140.549z" />
<glyph unicode="&#xe90a;" glyph-name="close" d="M1024 857.6l-102.4 102.4-409.6-409.6-409.6 409.6-102.4-102.4 409.6-409.6-409.6-409.6 102.4-102.4 409.6 409.6 409.6-409.6 102.4 102.4-409.6 409.6 409.6 409.6z" />
<glyph unicode="&#xe90b;" glyph-name="check" horiz-adv-x="1346" d="M427.372 151.802l-317.355 317.355-110.017-105.785 427.372-427.372 918.215 918.215-110.017 105.785-808.198-808.198z" />
<glyph unicode="&#xe90c;" glyph-name="caret-up" horiz-adv-x="1902" d="M1901.714-64h-1901.714l950.857 1024 950.857-1024z" />
<glyph unicode="&#xe90d;" glyph-name="caret-down" horiz-adv-x="1902" d="M950.857-64l-950.857 1024h1901.714l-950.857-1024z" />
<glyph unicode="&#xe90e;" glyph-name="cart" d="M306.785 143.287c-58.040 0-103.644-45.603-103.644-103.644s45.603-103.644 103.644-103.644 103.644 45.603 103.644 103.644c0 58.040-45.603 103.644-103.644 103.644 0 0 0 0 0 0zM0 960v-103.644h103.644l182.413-389.7-70.478-124.372c-8.291-12.437-12.437-29.020-12.437-45.603 0-58.040 45.603-103.644 103.644-103.644h613.571v103.644h-592.842c-8.291 0-12.437 4.146-12.437 12.437 0 0 0 0 0 0v4.146l45.603 82.915h385.555c37.312 0 70.478 20.729 91.206 53.895l182.413 331.66c4.146 8.291 8.291 16.583 4.146 24.874 0 29.020-24.874 49.749-49.749 49.749h-758.672l-49.749 103.644h-165.83zM816.713 143.287c-58.040 0-103.644-45.603-103.644-103.644s45.603-103.644 103.644-103.644 103.644 45.603 103.644 103.644c0 58.040-45.603 103.644-103.644 103.644 0 0 0 0 0 0z" />
<glyph unicode="&#xe90f;" glyph-name="arrow-up" horiz-adv-x="778" d="M0 591.36v-40.96l66.56-61.44h35.84l215.040 215.040v-742.4l25.6-25.6h92.16l25.6 25.6v742.4l215.040-215.040h35.84l66.56 61.44v40.96l-368.64 368.64h-40.96z" />
<glyph unicode="&#xe910;" glyph-name="arrow-down" horiz-adv-x="778" d="M0 304.64v35.84l66.56 66.56h35.84l215.040-215.040v742.4l25.6 25.6h92.16l25.6-25.6v-742.4l215.040 215.040h35.84l66.56-66.56v-35.84l-368.64-368.64h-40.96z" />
<glyph unicode="&#xe911;" glyph-name="arrow-left" horiz-adv-x="1347" d="M485.053 960h53.895l80.842-87.579v-47.158l-282.947-282.947h976.842l33.684-33.684v-121.263l-33.684-33.684h-976.842l282.947-282.947v-47.158l-80.842-87.579h-53.895l-485.053 485.053v47.158z" />
<glyph unicode="&#xe912;" glyph-name="arrow-right" horiz-adv-x="1347" d="M862.316 960h-47.158l-87.579-87.579v-47.158l282.947-282.947h-976.842l-33.684-33.684v-121.263l33.684-33.684h976.842l-282.947-282.947v-47.158l87.579-87.579h47.158l485.053 485.053v47.158z" />
<glyph unicode="&#xe913;" glyph-name="search" d="M730.742 315.793h-48.075l-14.423 14.423c134.61 158.648 120.188 399.023-43.268 538.441s-399.023 120.188-533.634-38.46-120.188-399.023 43.268-538.441c144.225-120.188 350.948-120.188 495.174 0l14.423-14.423v-48.075l293.258-293.258 86.535 86.535-293.258 293.258zM379.793 315.793c-144.225 0-264.413 120.188-264.413 264.413s120.188 264.413 264.413 264.413 264.413-120.188 264.413-264.413v0c0-144.225-120.188-264.413-264.413-264.413 0 0 0 0 0 0z" />
<glyph unicode="&#xe914;" glyph-name="menu" horiz-adv-x="1241" d="M1153.506 778.029h-1066.165c-48.188 0-90.353 42.165-90.353 90.353s42.165 90.353 90.353 90.353h1066.165c48.188 0 90.353-42.165 90.353-90.353s-42.165-90.353-90.353-90.353zM1153.506 356.382h-1066.165c-48.188 0-90.353 42.165-90.353 90.353s42.165 90.353 90.353 90.353h1066.165c48.188 0 90.353-42.165 90.353-90.353s-42.165-90.353-90.353-90.353zM1153.506-65.265h-1066.165c-48.188 0-90.353 42.165-90.353 90.353s42.165 90.353 90.353 90.353h1066.165c48.188 0 90.353-42.165 90.353-90.353s-42.165-90.353-90.353-90.353z" />
<glyph unicode="&#xe915;" glyph-name="tune" d="M0 163.556v-113.778h341.333v113.778h-341.333zM0 846.222v-113.778h568.889v113.778h-568.889zM568.889-64v113.778h455.111v113.778h-455.111v113.778h-113.778v-341.333h113.778zM227.556 618.667v-113.778h-227.556v-113.778h227.556v-113.778h113.778v341.333h-113.778zM1024 391.111v113.778h-568.889v-113.778h568.889zM682.667 618.667h113.778v113.778h227.556v113.778h-227.556v113.778h-113.778v-341.333z" />
<glyph unicode="&#xe916;" glyph-name="google-plus" d="M652 927.987h-229.998c-99.993 0-174.991-20.003-234.99-74.998-50.003-39.996-80.002-104.997-80.002-164.996 0-95.001 74.998-194.995 209.995-194.995 14.999 0 24.995 0 39.996 5.004v-5.004c-5.004-14.999-9.996-24.995-9.996-44.999 0-35.002 20.003-59.999 35.002-80.002v-5.004h-5.004c-54.995-9.996-159.992-14.999-234.99-65.002-89.998-50.003-95.001-129.993-95.001-149.996 0-89.998 84.994-179.995 269.994-179.995 214.998 0 329.991 119.997 329.991 234.99 0 84.994-50.003 129.993-104.997 174.991l-44.999 35.002c-14.999 9.996-29.999 24.995-29.999 54.995 0 24.995 20.003 44.999 35.002 59.999v0c50.003 39.996 104.997 84.994 104.997 179.995s-59.999 144.993-89.998 169.999h74.998c0 0 0 0 5.004 0l65.002 39.996c-5.004 5.004-5.004 5.004-9.996 9.996 5.004 0 5.004 0 0 0zM377.003 18.010c-129.993 0-219.991 59.999-219.991 155 0 59.999 35.002 104.997 104.997 129.993 54.995 20.003 129.993 20.003 129.993 20.003 9.996 0 20.003 0 29.999 0 89.998-65.002 134.997-99.993 134.997-164.996 0-84.994-69.995-140-179.995-140zM372 522.998c-110.001 0-155 144.993-155 224.994 0 39.996 9.996 69.995 29.999 95.001s54.995 39.996 89.998 39.996c99.993 0 159.992-134.997 159.992-229.998 0-14.999 0-59.999-29.999-89.998-29.999-24.995-65.002-39.996-95.001-39.996zM971.99 477.999h-119.997v119.997c0 5.004 0 5.004-5.004 5.004h-50.003c-5.004 0-5.004 0-5.004-5.004v-119.997h-119.997c-5.004 0-5.004 0-5.004-5.004v-54.995c0-5.004 0-5.004 5.004-5.004h119.997v-114.994c0-5.004 0-5.004 5.004-5.004h50.003c5.004 0 5.004 0 5.004 5.004v119.997h119.997c5.004 0 5.004 0 5.004 5.004l-5.004 54.995c5.004 0 5.004 0 0 0z" />
<glyph unicode="&#xe917;" glyph-name="caret-left" horiz-adv-x="926" d="M185.466 448.001l491.071 455.991v-911.988l-491.071 455.991z" />
<glyph unicode="&#xe918;" glyph-name="caret-right" horiz-adv-x="926" d="M740.534 448.001l-491.071 455.991v-911.988l491.071 455.991z" />
<glyph unicode="&#xe919;" glyph-name="delete" horiz-adv-x="796" d="M56.889 49.778c0.193-62.76 51.018-113.584 113.759-113.778h455.13c62.76 0.193 113.584 51.018 113.778 113.759v682.686h-682.667zM196.836 454.827l80.213 80.213 121.173-120.604 120.604 120.604 80.213-80.213-120.604-120.604 120.604-120.604-80.213-80.213-120.604 120.604-120.604-120.604-80.213 80.213 120.604 120.604zM597.333 903.111l-56.889 56.889h-284.444l-56.889-56.889h-199.111v-113.778h796.444v113.778z" />
<glyph unicode="&#xe91a;" glyph-name="recycle" horiz-adv-x="1015" d="M365.718 436.165c0.541-2.197 0.851-4.718 0.851-7.313 0-17.578-14.25-31.827-31.827-31.827-6.219 0-12.022 1.784-16.924 4.868l0.132-0.078-80.507 50.881-100.849-162.786c-5.923-9.556-9.433-21.147-9.433-33.558 0-35.113 28.099-63.663 63.037-64.392l0.068-0.001h103.049c0.080 0.001 0.174 0.002 0.269 0.002 13.161 0 23.83-10.669 23.83-23.83 0-0.038 0-0.077 0-0.115v0.006-80.024c0-0.048 0.001-0.105 0.001-0.161 0-13.153-10.632-23.823-23.771-23.884h-102.894c-105.458 0.867-190.614 86.558-190.614 192.138 0 37.642 10.824 72.756 29.53 102.399l-0.467-0.793 100.742 162.786-80.883 50.934c-8.95 5.819-14.785 15.771-14.785 27.086 0 15.031 10.298 27.657 24.223 31.207l0.223 0.048 218.551 50.934c2.136 0.512 4.588 0.805 7.109 0.805 15.075 0 27.698-10.498 30.956-24.582l0.042-0.214 50.344-220.537zM561.405 801.991l81.795-132.139-80.776-50.934c-8.95-5.819-14.785-15.771-14.785-27.086 0-15.031 10.298-27.657 24.223-31.207l0.223-0.048 218.658-50.881c2.133-0.511 4.581-0.804 7.098-0.804 15.064 0 27.676 10.501 30.914 24.582l0.041 0.213 50.451 220.483c0.541 2.197 0.851 4.718 0.851 7.313 0 17.578-14.25 31.827-31.827 31.827-6.219 0-12.022-1.784-16.924-4.868l0.132 0.078-80.507-50.827-82.010 132.193c-33.943 54.461-93.51 90.167-161.417 90.167s-127.474-35.706-160.952-89.367l-0.465-0.8-35.584-57.536c-2.272-3.614-3.62-8.009-3.62-12.718 0-8.505 4.396-15.983 11.040-20.286l0.094-0.057 67.25-42.347c3.587-2.313 7.969-3.687 12.671-3.687 8.469 0 15.896 4.458 20.064 11.155l0.058 0.1 35.638 57.482c11.332 18.040 31.122 29.855 53.672 29.855s42.34-11.815 53.518-29.592l0.154-0.262zM986 357.698l-54.584 88.182c-4.232 6.83-11.686 11.311-20.187 11.311-4.674 0-9.032-1.355-12.702-3.693l0.096 0.057-67.089-42.347c-6.792-4.339-11.231-11.839-11.231-20.376 0-4.697 1.344-9.081 3.668-12.787l-0.059 0.101 54.638-88.29c6.056-9.606 9.649-21.292 9.649-33.818 0-35.124-28.258-63.649-63.28-64.079h-190.414v96.018c0.001 0.067 0.001 0.147 0.001 0.226 0 17.518-14.201 31.72-31.72 31.72-8.789 0-16.743-3.575-22.488-9.349l-0.001-0.001-158.6-159.888c-5.74-5.812-9.285-13.804-9.285-22.623s3.545-16.81 9.288-22.626l-0.003 0.003 158.707-160.049c5.736-5.712 13.647-9.244 22.383-9.244 17.518 0 31.72 14.201 31.72 31.72 0 0.118-0.001 0.235-0.002 0.352v-0.018 95.75h190.051c105.4 0.981 190.465 86.651 190.465 192.19 0 37.619-10.808 72.714-29.488 102.349l0.468-0.795z" />
<glyph unicode="&#xe91b;" glyph-name="logout" d="M417.961 92.738c-1.308 3.481-1.759 6.441-1.315 8.836 0.441 2.379-1.080 4.351-4.568 5.869s-5.229 2.724-5.229 3.584c0 0.869-2.5 1.526-7.512 1.956-5.009 0.437-7.509 0.659-7.509 0.659h-203.751c-28.734 0-53.335 10.222-73.8 30.699-20.461 20.463-30.69 45.057-30.69 73.786v459.759c0 28.734 10.227 53.326 30.69 73.789 20.465 20.465 45.066 30.701 73.8 30.701h208.977c5.661 0 10.113 1.404 13.386 4.241 3.26 2.829 5.433 7.077 6.526 12.736 1.089 5.659 1.745 10.769 1.965 15.341 0.215 4.568 0.11 10.341-0.329 17.306-0.432 6.963-0.65 11.316-0.65 13.066 0 5.659-2.070 10.547-6.203 14.692-4.138 4.126-9.033 6.197-14.692 6.197h-208.979c-51.805 0-96.107-18.395-132.899-55.183-36.783-36.788-55.178-81.083-55.178-132.892v-459.749c0-51.805 18.395-96.111 55.178-132.885 36.792-36.806 81.094-55.201 132.899-55.201h208.986c5.661 0 10.115 1.423 13.386 4.241 3.26 2.834 5.433 7.077 6.526 12.743 1.089 5.652 1.745 10.787 1.965 15.341 0.215 4.572 0.11 10.334-0.329 17.299-0.437 6.972-0.65 11.323-0.65 13.070zM1011.591 477.388l-355.262 355.273c-8.267 8.262-18.066 12.407-29.386 12.407s-21.119-4.145-29.395-12.407c-8.273-8.273-12.407-18.079-12.407-29.393v-188.082h-292.569c-11.327 0-21.119-4.145-29.393-12.407-8.273-8.273-12.407-18.073-12.407-29.393v-250.779c0-11.318 4.133-21.117 12.407-29.386 8.283-8.257 18.073-12.414 29.393-12.414h292.572v-188.080c0-11.311 4.133-21.119 12.407-29.386 8.273-8.273 18.073-12.416 29.395-12.416 11.318 0 21.117 4.142 29.386 12.416l355.26 355.257c8.273 8.28 12.409 18.066 12.409 29.388 0 11.318-4.136 21.126-12.409 29.4z" />
<glyph unicode="&#xe91c;" glyph-name="report-problem" horiz-adv-x="1186" d="M0-64h1185.684l-592.842 1024zM646.737 97.684h-107.789v107.789h107.789zM646.737 313.263h-107.789v215.579h107.789z" />
<glyph unicode="&#xe91d;" glyph-name="chat" d="M921.6 960h-819.2c-56.333-0.291-101.888-46.025-101.888-102.399 0 0 0-0.001 0-0.001v0l-0.512-921.6 204.8 204.8h716.8c56.484 0.174 102.226 45.916 102.4 102.383v614.417c-0.174 56.484-45.916 102.226-102.383 102.4h-0.017zM204.8 601.6h614.4v-102.4h-614.4zM614.4 345.6h-409.6v102.4h409.6zM819.2 652.8h-614.4v102.4h614.4z" />
<glyph unicode="&#xe91e;" glyph-name="interface" d="M512 314.018c36.852 0 66.732 29.88 66.732 66.732v304.255c0 36.857-29.88 66.732-66.732 66.732s-66.732-29.875-66.732-66.732v-304.261c0-36.852 29.88-66.727 66.732-66.727zM512.016 277.695c-17.564 0-34.813-7.1-47.198-19.539-12.434-12.385-19.534-29.576-19.534-47.139s7.1-34.807 19.534-47.193c12.385-12.439 29.634-19.539 47.198-19.539s34.754 7.1 47.193 19.539c12.38 12.385 19.539 29.629 19.539 47.193s-7.159 34.754-19.539 47.139c-12.439 12.439-29.629 19.539-47.193 19.539zM512 960c-282.314 0-512-229.681-512-512s229.681-512 512-512 511.995 229.681 511.995 512-229.676 512-511.995 512zM512 16.078c-238.164 0-431.922 193.758-431.922 431.922s193.758 431.922 431.922 431.922c238.159 0 431.916-193.758 431.916-431.922s-193.752-431.922-431.916-431.922z" />
<glyph unicode="&#xe91f;" glyph-name="close-thick" horiz-adv-x="1007" d="M750.933 448l230.4 230.4c25.6 25.6 25.6 59.733 0 85.333l-162.133 170.667c-25.6 25.6-59.733 25.6-85.333 0l-230.4-230.4-238.933 238.933c-25.6 25.6-59.733 25.6-85.333 0l-162.133-170.667c-25.6-25.6-25.6-59.733 0-85.333l230.4-238.933-230.4-230.4c-25.6-25.6-25.6-59.733 0-85.333l153.6-170.667c25.6-25.6 59.733-25.6 85.333 0l247.467 247.467 247.467-247.467c25.6-25.6 68.267-25.6 85.333 0l153.6 170.667c17.067 25.6 17.067 59.733 0 85.333l-238.933 230.4z" />
<glyph unicode="&#xe920;" glyph-name="mail" d="M904 824h-784c-66.176 0-120-53.824-120-120v-512c0-66.176 53.824-120 120-120h784c66.176 0 120 53.824 120 120v512c0 66.176-53.824 120-120 120zM944 192c0-22.048-17.952-40-40-40h-784c-22.048 0-40 17.952-40 40v512c0 22.048 17.952 40 40 40h784c22.048 0 40-17.952 40-40v-512zM937.216 774.112l-425.216-316.288-425.216 316.288-47.744-64.192 472.96-351.776 472.96 351.776z" />
<glyph unicode="&#xe921;" glyph-name="plus" d="M558.56 517.824l-23.264 442.176-116.352-58.176v-384h-418.912l52.352-110.56h366.56v-471.264l116.352 75.648 11.648 395.648h413.088l75.648 110.56z" />
<glyph unicode="&#xe922;" glyph-name="cart-a" horiz-adv-x="1152" d="M1024 302.688l138.624 478.464c4.48 17.888-4.48 35.776-22.368 40.256-4.48 0-4.48 0-8.928 0h-836.192l-22.368 111.776c-4.48 13.408-17.888 26.816-35.776 26.816h-201.216c-22.368 0-35.776-13.408-35.776-31.296s13.408-35.776 31.296-35.776c0 0 0 0 4.48 0h178.88l125.216-554.496c-53.664-22.368-76.032-80.48-53.664-134.144 17.888-35.776 53.664-62.592 93.888-62.592h617.088c17.888 0 35.776 13.408 35.776 31.296s-13.408 35.776-31.296 35.776c0 0 0 0-4.48 0h-621.568c-17.888 0-31.296 17.888-31.296 35.776s13.408 31.296 31.296 31.296v0h617.088c13.408 4.48 26.816 13.408 31.296 26.816zM402.432 347.392l-89.44 406.912h773.6l-116.256-406.912h-567.904zM339.84 38.848c0-58.144 44.704-102.848 102.848-102.848s102.848 44.704 102.848 102.848-44.704 102.848-102.848 102.848c-58.144 0-102.848-44.704-102.848-102.848zM442.688 74.624c17.888 0 35.776-13.408 35.776-35.776s-13.408-35.776-35.776-35.776c-17.888 0-35.776 13.408-35.776 35.776s17.888 35.776 35.776 35.776zM822.784 38.848c0-58.144 44.704-102.848 102.848-102.848s102.848 44.704 102.848 102.848-44.704 102.848-102.848 102.848c-58.144 0-102.848-44.704-102.848-102.848zM925.632 74.624c17.888 0 35.776-13.408 35.776-35.776 0-17.888-13.408-35.776-35.776-35.776-17.888 0-35.776 13.408-35.776 35.776s13.408 35.776 35.776 35.776z" />
<glyph unicode="&#xe923;" glyph-name="pinterest-a" horiz-adv-x="832" d="M429.408 960c-277.472 0-429.408-178.368-429.408-376.576 0-99.104 46.24-191.584 132.128-237.824 13.216-6.592 19.808 0 19.808 6.592s13.216 52.864 19.808 72.672c0 6.592 0 13.216-6.592 19.808-26.432 33.024-46.24 85.888-46.24 138.72 0 151.936 132.128 270.88 284.064 270.88 6.592 0 6.592 0 13.216 0 138.72 13.216 257.664-92.48 270.88-231.232 0-6.592 0-13.216 0-19.808 0-171.776-92.48-290.688-204.8-290.688-52.864 0-92.48 33.024-99.104 85.888 0 6.592 0 19.808 0 26.432 26.432 66.080 39.648 138.72 52.864 204.8 6.592 46.24-26.432 79.264-72.672 85.888-6.592 0-6.592 0-13.216 0-66.080-6.592-118.912-72.672-112.32-145.344 0-33.024 6.592-66.080 19.808-92.48 0 0-66.080-257.664-79.264-310.496-13.216-72.672-6.592-151.936 6.592-224.608 0-6.592 0-6.592 6.592-6.592 0 0 6.592 0 6.592 0 46.24 59.456 79.264 125.536 105.696 198.208 6.592 26.432 39.648 145.344 39.648 145.344 33.024-46.24 92.48-72.672 151.936-72.672 198.208 0 336.928 171.776 336.928 389.792 0 211.392-178.368 363.36-403.008 363.36z" />
<glyph unicode="&#xe924;" glyph-name="account" horiz-adv-x="960" d="M594.432 335.616h-239.776c-194.816 0-354.656-159.84-354.656-354.656 0-24.96 19.968-44.96 44.96-44.96h854.176c24.96 0 44.96 19.968 44.96 44.96 4.992 194.816-154.848 354.656-349.664 354.656zM74.912 10.912c14.976 139.872 134.88 249.76 274.72 249.76h244.768c144.864 0 259.744-109.888 274.72-249.76h-794.24zM464.544 410.528c149.856 0 274.72 124.864 274.72 274.72s-124.864 274.72-274.72 274.72-274.72-124.864-274.72-274.72 124.864-274.72 274.72-274.72zM464.544 885.088c109.888 0 199.808-89.92 199.808-199.808s-89.92-199.808-199.808-199.808-199.808 89.92-199.808 199.808 89.92 199.808 199.808 199.808z" />
<glyph unicode="&#xe925;" glyph-name="hamburger" horiz-adv-x="1888" d="M0-64h1879.872v252.192l-1879.872-84.064zM0 363.936h1879.872v145.184l-1879.872 129.92zM0 960v-168.128l1879.872-84.064v252.192z" />
<glyph unicode="&#xe926;" glyph-name="check-b" horiz-adv-x="1248" d="M1156.64 960l-737.504-668.512-206.912 233.44-206.912-212.224 323.648-291.808 100.8-90.208 79.584 90.208 753.408 838.304-106.112 100.8z" />
<glyph unicode="&#xe927;" glyph-name="chevron-a-left" horiz-adv-x="672" d="M657.568 698.976l-85.344 261.024-572.224-527.072v-40.16l587.296-456.768 70.272 291.136-356.384 205.792z" />
<glyph unicode="&#xe928;" glyph-name="chevron-a-right" horiz-adv-x="672" d="M80.32 960l-80.32-261.024 356.384-266.048-356.384-205.792 65.248-291.136 592.32 456.768v40.16z" />
<glyph unicode="&#xe929;" glyph-name="quote-start" horiz-adv-x="1088" d="M9.76 527.648l620.896-464.864 52 35.744-409.6 659.904zM585.152 810.464l169.056-468.128 94.272 19.52 6.496 500.608z" />
<glyph unicode="&#xe92a;" glyph-name="quote-end" d="M811.072 675.040l-504.16-544.896 37.568-46.976 673.28 328.8zM281.824 881.728l-84.544-472.864 84.544-34.432 247.392 410.24z" />
<glyph unicode="&#xe92b;" glyph-name="heart" horiz-adv-x="1184" d="M564.416-55.936c8.064-8.064 16.128-8.064 24.192-8.064s16.128 0 24.192 8.064l467.648 475.712c201.568 193.504 56.448 540.224-217.696 540.224-169.312 0-241.888-120.96-274.144-145.12-32.256 24.192-104.832 145.12-274.144 145.12-282.208 0-419.264-338.656-225.76-540.224l475.712-475.712z" />
<glyph unicode="&#xe92c;" glyph-name="send" horiz-adv-x="1056" d="M8.32 751.872l491.2-308.032 216.448-516.16 341.344 1032.32-1048.992-208.128zM258.080 701.92l582.752 116.544-308.032-266.4-274.72 149.856zM699.328 185.76l-116.544 291.392 299.712 274.72-183.168-566.112z" />
<glyph unicode="&#xe92d;" glyph-name="comment" d="M941.184 192c143.072 346.368 7.52 677.632-331.296 760.48-399.072 52.704-677.632-278.592-594.816-647.52 37.632-248.48 466.816-496.928 760.48-263.52l263.52-105.408-97.888 256zM911.072 64l-150.592 45.184c-331.296-225.888-700.224 22.592-700.224 316.224 15.072 293.632 286.112 572.224 640 421.632 203.296-105.408 316.224-353.888 158.112-640l52.704-143.072z" />
<glyph unicode="&#xe92e;" glyph-name="tune-v" d="M1008.16 706.624c0 73.888-52.768 137.248-121.408 153.088v68.608c0 21.12-15.84 36.96-36.96 36.96s-36.96-15.84-36.96-36.96v-63.328c-68.608-15.84-121.408-79.168-121.408-153.088v0c0-73.888 52.768-137.248 121.408-153.088v-585.888c0-21.12 15.84-36.96 36.96-36.96s36.96 15.84 36.96 36.96v580.608c68.608 15.84 121.408 79.168 121.408 153.088zM849.824 622.176c0 0 0 0 0 0s0 0 0 0c-47.52 0-84.448 36.96-84.448 84.448s36.96 84.448 84.448 84.448c0 0 0 0 0 0s0 0 0 0c47.52 0 84.448-36.96 84.448-84.448s-36.96-84.448-84.448-84.448zM538.4 342.432v585.888c0 21.12-15.84 36.96-36.96 36.96s-36.96-15.84-36.96-36.96v-585.888c-68.608-15.84-121.408-79.168-121.408-153.088s52.768-137.248 121.408-153.088v-63.328c0-21.12 15.84-36.96 36.96-36.96s36.96 15.84 36.96 36.96v63.328c68.608 15.84 121.408 79.168 121.408 153.088s-47.52 137.248-121.408 153.088zM501.44 99.616c-47.52 0-84.448 36.96-84.448 84.448s36.96 89.728 84.448 89.728 84.448-36.96 84.448-84.448-36.96-89.728-84.448-89.728zM195.296 864.992v63.328c0 21.12-15.84 36.96-36.96 36.96s-36.96-15.84-36.96-36.96v-63.328c-73.888-15.84-126.688-79.168-126.688-158.336v0c0-73.888 52.768-137.248 121.408-153.088v-585.888c0-21.12 15.84-36.96 36.96-36.96s36.96 15.84 36.96 36.96v585.888c73.888 15.84 126.688 79.168 126.688 153.088s-52.768 142.528-121.408 158.336zM158.336 622.176c0 0 0 0 0 0s0 0 0 0c-47.52 0-84.448 36.96-84.448 84.448s36.96 84.448 84.448 84.448c0 0 0 0 0 0s0 0 0 0c47.52 0 84.448-36.96 84.448-84.448s-36.96-84.448-84.448-84.448z" />
<glyph unicode="&#xe92f;" glyph-name="loud" horiz-adv-x="832" d="M210.208 960l-151.936-376.704 27.072-24.96 299.712 287.232zM670.176 685.28v0l-370.464-285.152 18.72-37.472 445.408 145.696zM378.784 83.776l272.64-99.904 20.8 170.656-291.392-31.232z" />
<glyph unicode="&#xe930;" glyph-name="trash" horiz-adv-x="736" d="M664.928 866.912h-172.896v46.56c0 26.592-19.936 46.56-46.56 46.56h-166.24c-26.592 0-53.184-19.936-53.184-46.56v-46.56h-166.24c-33.248 0-59.84-26.592-59.84-59.84v-33.248h724.768v33.248c0 33.248-26.592 59.84-59.84 59.84zM59.84-4.16c0-33.248 26.592-59.84 59.84-59.84h485.408c33.248 0 59.84 26.592 59.84 59.84v33.248h-605.088v-33.248zM192.832 115.52l-13.312 558.56h-166.24l26.592-558.56h152.928zM545.248 115.52h132.992l26.592 558.56h-126.336l-33.248-558.56zM299.232 674.080l-26.592-558.56h146.272l86.432 558.56h-206.144z" />
<glyph unicode="&#xe931;" glyph-name="cross" horiz-adv-x="1120" d="M682.656 423.616l348.288 397.056-181.12 62.688-313.472-313.472-348.288 348.288-62.688-174.144 292.576-292.576-397.056-397.056 195.040-48.768 334.368 313.472 341.344-341.344 195.040 41.792z" />
<glyph unicode="&#xe932;" glyph-name="subtract" d="M954.784 531.296l-953.312-33.312 88.608-133.312 937.312 32.608z" />
<glyph unicode="&#xe933;" glyph-name="hamclose" d="M1039.296 837.728l-117.184 122.272-397.376-433.024-448.32 427.936-76.416-76.416 427.936-458.496-371.904-402.464 81.504-81.504 387.168 387.168 351.52-376.992 122.272 122.272-371.904 356.608z" />
<glyph unicode="&#xe934;" glyph-name="chevron-a-up" horiz-adv-x="1600" d="M1184-64l-416 554.656-309.344-554.656-458.656 106.656 704 917.344h64l821.344-896z" />
<glyph unicode="&#xe935;" glyph-name="chevron-a-down" horiz-adv-x="1600" d="M1184 960l-416-554.656-309.344 554.656-458.656-106.656 704-917.344h64l821.344 896z" />
<glyph unicode="&#xe936;" glyph-name="send-a" horiz-adv-x="912" d="M907.567 790.625l-903.135-3.438 653.605-681.811 154.855 266.335-539.136 309.777 562.388-157.528z" />
<glyph unicode="&#xe937;" glyph-name="pause" horiz-adv-x="893" d="M221.184 17.92h139.264v851.968h-204.8zM712.704 878.080l-131.072-8.192-40.96-851.968h204.8z" />
<glyph unicode="&#xe938;" glyph-name="add-a" d="M857.043 793.043c-189.217 189.217-500.87 189.217-690.087 0s-189.217-500.87 0-690.087c189.217-189.217 500.87-189.217 690.087 0s189.217 500.87 0 690.087zM745.739 420.174c-11.13-11.13-27.826-16.696-38.957-16.696h-144.696v-144.696c0-33.391-27.826-61.217-61.217-61.217s-61.217 27.826-61.217 61.217v144.696h-144.696c-33.391 0-61.217 27.826-61.217 61.217 5.565 27.826 33.391 50.087 66.783 50.087h144.696v144.696c0 33.391 27.826 61.217 55.652 61.217 33.391 0 55.652-27.826 55.652-61.217v-139.13h144.696c33.391 0 55.652-27.826 55.652-55.652 0-22.261 0-33.391-11.13-44.522z" />
<glyph unicode="&#xe939;" glyph-name="track-referrals" d="M474.507 181.097c0-9.902 18.914-17.912 42.166-17.912 23.364 0 42.166 8.010 42.166 17.912 0 0.111 0 0.334 0 0.445h-84.332c0-0.111 0-0.223 0-0.445zM826.632 647.816c-2.114 0-4.228-0.445-6.008-1.335v27.814c0 7.899-6.342 14.241-14.241 14.241h-52.29c-3.894 0-7.454-1.558-10.013-4.116 2.559 2.559 6.119 4.228 10.124 4.228h2.336v57.408c0 6.898-4.895 12.683-11.682 14.018-97.571 18.023-168.887 10.124-211.831-23.586-24.365-19.136-32.709-41.721-35.602-53.848 1.558-2.336 2.559-5.118 2.559-8.122 0 0 0 0 0-0.111 0 2.893-0.89 5.674-2.559 8.010-2.559 3.671-6.787 6.119-11.682 6.119h-268.238c-7.899 0-14.241-6.342-14.241-14.241v-27.703c-1.78 0.779-3.783 1.335-5.897 1.335-26.479 0-47.951-21.139-47.951-47.061v-372.040c0-25.923 21.472-47.061 47.951-47.061h629.041c26.479 0 47.951 21.139 47.951 47.061v371.817c0.111 26.034-21.361 47.173-47.729 47.173zM524.349 633.575v38.606c0.334 3.004 3.449 24.365 26.924 42.389 24.143 18.468 74.319 36.492 176.674 19.47v-407.419c-42.5 2.893-152.421 6.898-203.598-23.809v330.764zM231.746 633.464v26.59h253.997c4.005 0 7.677 1.669 10.236 4.339v-395.738h31.93c1.113 1.558 2.448 3.115 4.116 4.673 35.491 32.264 162.767 28.148 208.939 23.809 4.005-0.334 7.899 1.001 10.903 3.671s4.673 6.564 4.673 10.458v348.787h35.602v-391.51h-560.396v364.92zM846.102 228.714c0-10.236-8.789-18.691-19.47-18.691h-629.264c-10.792 0-19.47 8.344-19.47 18.691v371.929c0 10.236 8.789 18.691 19.47 18.691 2.114 0 4.116 0.445 5.897 1.335v-366.255c0-7.899 6.342-14.241 14.241-14.241h588.878c7.899 0 14.241 6.342 14.241 14.241v366.366c1.78-0.89 3.894-1.335 6.008-1.335 10.792 0 19.47-8.344 19.47-18.691v-372.040zM462.936 604.871h-192.139c-7.899 0-14.241-6.342-14.241-14.241s6.342-14.241 14.241-14.241h192.139c7.899 0 14.241 6.342 14.241 14.241s-6.342 14.241-14.241 14.241zM462.936 516.756h-192.139c-7.899 0-14.241-6.342-14.241-14.241s6.342-14.241 14.241-14.241h192.139c7.899 0 14.241 6.342 14.241 14.241s-6.342 14.241-14.241 14.241zM462.936 428.641h-192.139c-7.899 0-14.241-6.342-14.241-14.241s6.342-14.241 14.241-14.241h192.139c7.899 0 14.241 6.342 14.241 14.241s-6.342 14.241-14.241 14.241zM385.168 340.527h-114.371c-7.899 0-14.241-6.342-14.241-14.241s6.342-14.241 14.241-14.241h114.371c7.899 0 14.241 6.342 14.241 14.241s-6.342 14.241-14.241 14.241z" />
<glyph unicode="&#xe93a;" glyph-name="account-setting" d="M535.030 680.636v97.905c0 7.899-6.342 14.241-14.241 14.241s-14.241-6.342-14.241-14.241v-96.459c3.671 0.668 7.454 1.001 11.237 1.001 5.897 0 11.682-0.89 17.245-2.448zM506.548 272.327v-154.757c0-7.899 6.342-14.241 14.241-14.241s14.241 6.342 14.241 14.241v151.531l-17.356 9.123-11.126-5.897zM611.574 231.162c-5.118 1.224-10.013 3.004-14.908 5.563l-21.361 11.237 42.166-115.929c2.114-5.785 7.565-9.346 13.351-9.346 1.558 0 3.226 0.223 4.784 0.89 7.343 2.67 11.126 10.903 8.455 18.246l-32.487 89.339zM443.466 609.766l17.356 35.268-42.945 117.931c-2.67 7.343-10.903 11.126-18.246 8.455s-11.126-10.903-8.455-18.246l52.29-143.409zM682.444 268.655c-3.56-9.123-9.346-17.356-17.022-23.92l51.178-60.968c2.781-3.338 6.898-5.118 10.903-5.118 3.226 0 6.453 1.113 9.123 3.338 6.008 5.007 6.787 14.018 1.78 20.026l-55.962 66.642zM396.516 565.041l26.813 3.894 2.67 5.34-112.48 133.952c-5.007 6.008-14.018 6.787-20.026 1.78s-6.787-14.018-1.78-20.026l104.803-124.94zM219.731 596.415l88.449-51.066c7.788 5.563 16.911 9.234 26.813 10.792l9.234 1.335-110.255 63.638c-6.787 3.894-15.576 1.669-19.47-5.229s-1.558-15.576 5.229-19.47zM806.383 290.573l-131.95 76.21 6.23-36.492 111.478-64.306c2.225-1.224 4.673-1.891 7.12-1.891 4.895 0 9.679 2.559 12.349 7.009 3.894 6.898 1.558 15.576-5.229 19.47zM184.017 484.047l106.249-18.691c-5.229 9.234-8.010 19.692-7.899 30.262l-93.455 16.466c-7.565 1.335-15.131-3.783-16.466-11.571-1.335-7.677 3.783-15.131 11.571-16.466zM839.871 397.267l-136.4 24.031-25.144-24.476 156.76-27.591c0.779-0.111 1.669-0.223 2.448-0.223 6.675 0 12.683 4.895 13.907 11.793 1.335 7.677-3.783 15.131-11.571 16.466zM744.414 464.132l95.458 16.8c7.788 1.335 12.906 8.789 11.571 16.466-1.335 7.788-8.789 12.906-16.466 11.571l-81.996-14.463c-0.111-10.681-3.115-21.139-8.567-30.373zM332.878 420.409l-148.86-26.256c-7.788-1.335-12.906-8.789-11.571-16.466 1.224-6.898 7.232-11.793 14.018-11.793 0.89 0 1.669 0.111 2.559 0.223l168.998 29.817-25.144 24.476zM360.247 362.889l-140.516-81.106c-6.787-4.005-9.123-12.683-5.229-19.47 2.67-4.561 7.454-7.12 12.349-7.12 2.448 0 4.895 0.556 7.12 1.891l120.045 69.312 6.23 36.492zM700.468 556.141c11.014-1.669 21.139-6.119 29.372-12.683l76.544 44.169c6.787 4.005 9.123 12.683 5.229 19.47-4.005 6.787-12.683 9.123-19.47 5.229l-96.125-55.517 4.45-0.668zM612.242 568.935l32.153-4.673 94.011 112.035c5.007 6.008 4.228 15.020-1.78 20.026s-15.020 4.228-20.026-1.78l-104.692-124.829 0.334-0.779zM355.129 263.76l-63.416-75.543c-5.007-6.008-4.228-15.020 1.78-20.026 2.67-2.225 5.897-3.338 9.123-3.338 4.005 0 8.122 1.78 10.903 5.118l60.189 71.649c-8.122 6.008-14.352 13.573-18.58 22.14zM644.061 736.375c2.781 7.343-1.113 15.576-8.455 18.246-7.343 2.781-15.576-1.113-18.246-8.455l-39.273-108.030 17.467-35.268 48.508 133.507zM430.783 233.276l-39.385-108.252c-2.781-7.343 1.113-15.576 8.455-18.246 1.669-0.668 3.226-0.89 4.895-0.89 5.785 0 11.237 3.671 13.351 9.346l49.731 136.845-29.149-15.353c-2.559-1.335-5.229-2.448-7.899-3.449zM658.524 429.198l50.065 48.73c2.781 2.781 4.895 6.119 6.119 9.679 1.669 4.895 1.669 10.236 0 15.353-2.893 8.9-10.458 15.242-19.692 16.577l-5.118 0.779-102.355 14.797-1.669 3.449-7.899 15.91-17.467 35.268-21.027 42.722c-1.113 2.336-2.67 4.45-4.45 6.23-4.45 4.561-10.681 7.343-17.356 7.343-4.005 0-7.788-1.001-11.126-2.67-4.561-2.336-8.344-6.119-10.681-10.903l-17.578-35.491-17.356-35.268-9.123-18.468-4.005-8.122-107.473-15.464c-9.234-1.335-16.8-7.677-19.692-16.577-1.558-4.673-1.558-9.568-0.334-14.13 1.113-4.005 3.338-7.788 6.453-10.903l77.99-75.765-2.559-15.131-6.23-36.492-8.233-48.174-1.224-7.232c-1.558-9.234 2.114-18.357 9.679-23.809 0.556-0.445 1.113-0.779 1.669-1.113 7.343-4.561 16.355-4.784 24.031-0.779l27.591 14.463 68.534 36.047 17.245-9.123 21.472-11.237 57.519-30.262c3.56-1.891 7.454-2.781 11.348-2.781 5.007 0 10.013 1.669 14.241 4.784 0.779 0.556 1.446 1.113 2.114 1.669 6.119 5.563 9.012 13.796 7.565 22.14l-2.781 16.466-7.343 42.834-6.23 36.492-1.891 11.348 2.67 2.67 24.588 24.143zM603.119 410.173c-0.223-0.668-0.334-1.224-0.445-1.891-0.556-2.893-0.556-5.785-0.111-8.678l4.561-26.701 3.115-18.135 9.568-55.628 0.111-0.445-40.608 21.361-37.382 19.581-6.898 3.671-5.897 3.115c-3.56 1.891-7.454 2.781-11.348 2.781s-7.677-1.001-11.237-2.893c0 0-0.111 0-0.111-0.111l-5.452-2.893-85.333-44.947 12.127 70.759 5.229 30.373c0.334 1.891 0.445 3.783 0.223 5.674-0.111 1.335-0.334 2.67-0.556 4.005-1.001 4.45-3.338 8.567-6.675 11.904l-13.796 13.462-11.793 11.459-47.84 46.616 101.465 14.797c7.454 1.113 14.13 5.674 17.801 12.238 0.223 0.334 0.445 0.668 0.556 1.113l2.003 4.116 32.042 65.085 11.237 22.696 17.245-34.934 12.127-24.476 16.021-32.487c0.445-0.89 0.89-1.78 1.446-2.559 0.556-0.89 1.113-1.669 1.78-2.448 3.783-4.45 9.123-7.454 15.020-8.344l23.030-3.226 78.547-11.348-13.128-12.794-60.301-58.743c-3.004-3.226-5.229-7.009-6.342-11.126z" />
<glyph unicode="&#xe93b;" glyph-name="message-invite" d="M765.664 679.635h-507.105c-26.034 0-47.173-21.472-47.173-47.729v-338.997c0-23.809 19.247-43.279 42.834-43.279h65.085c-2.114-21.472-9.457-60.968-36.158-71.426-5.897-2.336-9.568-8.344-8.9-14.686 0.668-6.453 5.452-11.571 11.793-12.572 1.001-0.223 9.568-1.558 22.474-1.558 22.251 0 57.074 4.116 86.446 25.589 23.809 17.245 39.496 42.389 46.728 74.764h323.977c26.034 0 47.173 21.361 47.173 47.618v334.547c0 26.368-21.139 47.729-47.173 47.729zM784.243 297.359c0-10.569-8.344-19.247-18.691-19.247h-335.659c-7.009 0-13.017-5.229-14.018-12.127-4.561-30.484-17.245-53.403-37.382-68.089-16.466-12.016-35.824-17.133-52.179-19.025 22.696 33.711 22.251 82.329 22.251 85.111-0.111 7.788-6.453 14.018-14.241 14.018h-80.104c-8.010 0-14.463 6.675-14.463 14.908v338.997c0 10.569 8.344 19.247 18.691 19.247h507.105c10.347 0 18.691-8.678 18.691-19.247v-334.547zM701.914 576.723h-379.717c-7.899 0-14.241-6.342-14.241-14.241s6.342-14.241 14.241-14.241h379.605c7.899 0 14.352 6.342 14.352 14.241s-6.342 14.241-14.241 14.241zM701.914 475.703h-379.717c-7.899 0-14.241-6.342-14.241-14.241s6.342-14.241 14.241-14.241h379.605c7.899 0 14.241 6.342 14.352 14.241 0 7.899-6.342 14.241-14.241 14.241zM701.914 366.672h-379.717c-7.899 0-14.241-6.342-14.241-14.241s6.342-14.241 14.241-14.241h379.605c7.899 0 14.241 6.453 14.352 14.241 0 7.899-6.342 14.241-14.241 14.241z" />
<glyph unicode="&#xe93c;" glyph-name="truck" d="M649.846 401.050c-70.759 0-133.173-42.5-159.096-108.363-2.893-7.343 0.668-15.576 8.010-18.468 1.669-0.668 3.449-1.001 5.229-1.001 5.674 0 11.014 3.449 13.239 9.012 21.584 54.849 73.651 90.34 132.728 90.34 58.966 0 111.033-35.491 132.728-90.34 2.893-7.343 11.126-10.903 18.468-8.010s10.903 11.126 8.010 18.468c-26.034 65.864-88.56 108.363-159.319 108.363zM844.21 514.865h-116.93c-8.233 0-15.687 4.895-18.914 12.572l-51.957 122.27c-9.457 22.251-31.152 36.603-55.405 36.603h-164.881v45.615c0 25.7-20.916 46.728-46.728 46.728h-62.86c-7.899 0-14.241-6.342-14.241-14.241s6.342-14.241 14.241-14.241h62.86c10.013 0 18.246-8.233 18.246-18.246v-487.524h-221.844c-7.899 0-14.241-6.342-14.241-14.241s6.342-14.241 14.241-14.241h360.136c3.004-54.738 48.508-98.35 103.913-98.35s100.909 43.612 103.913 98.35h101.354c23.698 0 43.056 19.247 43.056 43.056v201.818c0 29.817-24.143 54.070-53.959 54.070zM649.846 145.94c-41.721 0-75.654 33.933-75.654 75.654s33.933 75.654 75.654 75.654c41.721 0 75.654-33.933 75.654-75.654s-33.933-75.654-75.654-75.654zM855.225 244.29h-103.691c-10.347 46.505-51.957 81.439-101.577 81.439s-91.23-34.934-101.577-81.439h-112.257v413.538h164.881c12.794 0 24.143-7.565 29.149-19.359l51.957-122.27c7.677-18.135 25.366-29.817 45.059-29.817h116.93c14.13 0 25.589-11.459 25.589-25.589v-201.93h0.111c0-8.010-6.564-14.575-14.575-14.575zM645.062 500.847c6.008 9.012 7.009 20.471 2.781 30.484l-34.156 80.327c-5.34 12.461-17.467 20.471-30.929 20.471h-95.124c-13.573 0-24.588-11.014-24.588-24.588v-96.459c0-13.573 11.014-24.588 24.588-24.588h130.503c10.903-0.111 20.916 5.34 26.924 14.352zM491.418 514.642v89.005h91.23c2.114 0 4.005-1.224 4.784-3.226l34.156-80.327c0.668-1.669 0.111-3.004-0.334-3.671-0.556-0.779-1.446-1.78-3.226-1.78h-126.609zM373.264 300.030c0 7.899-6.342 14.241-14.241 14.241h-219.286c-7.899 0-14.241-6.342-14.241-14.241s6.342-14.241 14.241-14.241h219.286c7.899 0 14.241 6.342 14.241 14.241zM827.522 465.245h-35.713c-7.899 0-14.241-6.342-14.241-14.241s6.342-14.241 14.241-14.241h35.713c7.899 0 14.241 6.342 14.241 14.241s-6.342 14.241-14.241 14.241zM684.669 221.705c0-19.417-15.74-35.157-35.157-35.157s-35.157 15.74-35.157 35.157c0 19.417 15.74 35.157 35.157 35.157s35.157-15.74 35.157-35.157z" />
<glyph unicode="&#xe93d;" glyph-name="kid" d="M272.577 366.449c-2.893 7.343-11.126 10.903-18.468 8.010-4.45-1.78-9.234-2.67-14.13-2.67h-0.111c-21.25 0-38.606 17.356-38.717 38.606 0 10.347 4.005 20.026 11.237 27.369 7.343 7.343 17.022 11.459 27.369 11.459 4.228 0 8.9-0.779 13.017-2.225 7.343-2.559 15.465 1.335 18.135 8.678 2.559 7.343-1.224 15.465-8.678 18.135-6.119 2.114-12.461 3.449-18.914 3.783-27.703 58.076-25.7 122.048 5.785 171.557 15.242 23.809 35.268 41.276 56.073 49.62-2.114-3.783-4.005-7.565-5.563-11.126-3.226-7.12 0-15.576 7.12-18.802 1.891-0.779 3.783-1.224 5.785-1.224 5.452 0 10.569 3.115 13.017 8.344 23.141 51.512 99.352 122.27 205.156 93.121 7.565-2.114 15.353 2.336 17.467 9.902s-2.336 15.353-9.902 17.467c-93.566 25.811-167.218-15.798-209.050-63.75-38.717-1.446-77.99-27.258-104.024-68.422-35.379-55.739-39.162-126.609-10.903-191.583-8.233-3.338-15.798-8.344-22.14-14.797-12.572-12.683-19.581-29.594-19.47-47.506 0.111-36.937 30.15-66.865 67.087-66.865 0.111 0 0.111 0 0.223-0.223 8.455 0 16.8 1.558 24.588 4.673 7.343 2.893 10.903 11.126 8.010 18.468zM809.387 470.14c21.806 69.535 36.603 189.914-85.778 259.56-3.671 2.225-32.375 19.915-73.874 32.598-7.565 2.336-15.465-2.003-17.801-9.457-2.225-7.565 2.003-15.465 9.457-17.801 39.607-12.127 66.976-29.483 67.199-29.594l0.668-0.445c55.962-31.708 113.37-96.459 73.54-224.737-3.226 0.445-6.564 0.779-10.013 0.779-0.111 0-0.111 0-0.223 0-0.668 0-1.335 0-2.003 0-5.452 45.615-41.276 76.767-106.917 92.676-28.037 6.787-64.862 23.252-84.11 48.953-5.674 7.565-9.679 15.687-11.793 24.031-1.891 7.565-9.679 12.238-17.245 10.236-7.565-1.891-12.127-9.679-10.236-17.245 3.115-12.016 8.678-23.475 16.577-34.044 29.928-39.941 84.221-55.628 100.13-59.522 57.297-13.907 84.666-37.605 85.89-74.764-2.336-3.671-3.115-8.233-1.446-12.572 2.67-7.454 10.903-11.237 18.246-8.567 4.116 1.558 8.567 2.336 13.017 2.336h0.111c21.25 0 38.606-17.245 38.717-38.495 0-10.347-4.005-20.026-11.237-27.369-7.343-7.343-17.022-11.459-27.369-11.459-4.784 0-9.568 0.89-14.13 2.67-7.343 2.781-15.576-0.779-18.468-8.122-2.781-7.343 0.779-15.576 8.122-18.468 7.788-3.004 16.021-4.561 24.365-4.561 0.111 0 0.223 0 0.223 0.111 17.912 0 34.712 7.12 47.395 19.804 12.572 12.683 19.581 29.594 19.47 47.506-0.111 23.475-12.238 44.057-30.484 55.962zM408.198 347.758c17.801 0 32.153 14.575 32.153 32.375s-14.575 32.264-32.375 32.153c-17.801 0-32.264-14.575-32.153-32.375 0-17.912 14.575-32.264 32.375-32.153zM596.555 348.315c17.801 0.111 32.264 14.575 32.153 32.375 0 17.801-14.575 32.264-32.375 32.153s-32.264-14.575-32.153-32.375 14.575-32.264 32.375-32.153zM548.937 277.333c-8.789-11.459-24.921-18.58-42.055-18.691-0.111 0-0.111 0-0.223 0-16.911 0-32.264 6.564-41.387 17.578-5.007 6.008-14.018 6.898-20.026 1.891s-6.898-14.018-1.891-20.026c14.463-17.467 38.050-27.925 63.305-27.925 0.111 0 0.223 0 0.334 0.111 26.145 0 50.288 11.237 64.528 29.817 4.784 6.23 3.56 15.131-2.67 19.915s-15.131 3.56-19.915-2.67zM752.535 333.406c-7.677 0.779-14.797-4.895-15.576-12.683-11.237-107.14-108.030-191.027-220.398-191.027h-14.686c-112.035 0-208.827 83.553-220.287 190.359-0.89 7.788-7.899 13.351-15.687 12.572-7.788-0.89-13.462-7.899-12.572-15.687 13.128-123.049 120.045-215.837 248.546-215.837h14.686c126.721 0 235.974 95.124 248.657 216.727 0.779 7.788-4.895 14.797-12.683 15.576zM388.951 601.199c-6.898 3.783-15.465 1.224-19.247-5.674-8.678-16.021-20.026-30.262-33.711-42.5-16.021-14.241-34.378-25.033-54.515-31.819-7.454-2.559-11.459-10.569-8.9-18.023 2.003-5.897 7.565-9.679 13.462-9.679 1.558 0 3.115 0.223 4.45 0.89 15.91 5.34 30.929 12.794 44.836 22.251 8.344-1.224 16.466-1.78 24.254-1.78 78.102 0 128.501 56.518 140.405 101.465 2.003 7.565-2.559 15.353-10.124 17.356s-15.353-2.559-17.356-10.124c-13.684-51.845-63.082-75.32-104.914-79.214 10.569 11.348 19.581 23.92 27.035 37.605 3.783 6.898 1.224 15.465-5.674 19.247z" />
<glyph unicode="&#xe93e;" glyph-name="baby" d="M575.972 304.591c-6.23 4.784-15.131 3.671-19.915-2.559-9.791-12.572-27.591-20.471-46.505-20.471-18.58 0-35.713 7.343-45.726 19.581-5.007 6.008-13.907 7.009-20.026 2.003-6.008-5.007-7.009-13.907-2.003-20.026 15.353-18.802 40.608-30.039 67.755-30.039 27.925 0 53.737 11.793 68.979 31.597 4.784 6.23 3.671 15.131-2.559 19.915zM829.525 482.934c-4.895 0-9.791-0.445-14.575-1.335-17.801 116.040-109.81 211.609-228.965 237.532-2.003 23.698-11.348 44.169-26.701 57.964-5.785 5.229-14.797 4.784-20.026-1.113-5.229-5.785-4.784-14.797 1.113-20.026 10.236-9.123 16.577-24.254 17.467-41.498 1.113-20.805-5.785-41.61-18.468-55.628-5.229-5.897-4.784-14.908 1.001-20.137 2.781-2.448 6.119-3.671 9.568-3.671 3.894 0 7.677 1.558 10.458 4.673 12.238 13.573 20.694 31.485 24.143 50.733 109.142-25.7 192.139-115.929 203.71-223.847 0.668-6.119 5.229-11.014 11.014-12.349 3.671-3.004 8.9-4.116 13.796-2.336 5.229 1.78 10.792 2.781 16.466 2.781 26.813 0 48.73-21.806 48.73-48.73 0-26.813-21.806-48.73-48.73-48.73-6.23 0-12.238 1.113-17.912 3.338-3.226 1.335-6.675 1.335-9.791 0.223-7.009-0.223-12.906-5.563-13.573-12.683-13.573-129.947-131.060-231.857-267.459-231.857h-17.578c-135.955 0-253.441 101.577-267.348 231.19-0.89 7.788-7.899 13.351-15.687 12.572-0.223 0-0.556-0.111-0.779-0.111-2.336 0.334-4.784 0-7.12-0.89-5.674-2.225-11.682-3.338-17.801-3.338-26.813 0-48.73 21.917-48.73 48.73s21.806 48.73 48.73 48.73c5.674 0 11.237-0.89 16.466-2.781 5.452-2.003 11.348-0.334 15.131 3.56 5.229 1.669 9.123 6.23 9.791 12.016 11.126 106.917 92.009 196.923 201.040 223.736 7.677 1.891 12.349 9.568 10.458 17.245s-9.568 12.349-17.245 10.458c-116.708-28.815-204.377-123.272-221.066-237.198-4.784 0.89-9.568 1.335-14.463 1.335-42.611 0-77.212-34.601-77.212-77.212s34.601-77.212 77.212-77.212c5.118 0 10.236 0.556 15.131 1.446 22.807-138.402 146.079-240.869 293.493-240.869h17.578c145.523 0 271.576 105.248 293.716 242.427 4.895-1.001 9.902-1.446 14.908-1.446 42.611 0 77.212 34.712 77.323 77.1 0 42.611-34.601 77.212-77.212 77.212zM395.96 490.611c-23.364 0-42.277-19.025-42.277-42.389s18.914-42.277 42.277-42.277c23.475 0 42.389 18.914 42.389 42.277 0 23.475-19.025 42.389-42.389 42.389zM622.255 405.945c23.475 0 42.389 18.914 42.389 42.277s-18.914 42.389-42.389 42.389c-23.364 0-42.277-18.914-42.277-42.389 0-23.364 18.914-42.277 42.277-42.277zM399.075 738.156c7.677-1.446 15.131 3.56 16.688 11.237 3.004 15.576 15.020 27.258 30.484 29.928 18.802 3.226 41.721-4.116 49.843-34.267 5.897-21.695 2.781-42.166-9.234-60.746-13.684-21.25-36.381-34.934-51.623-37.493-7.677-1.335-12.906-8.567-11.682-16.355 1.113-7.009 7.232-11.904 14.018-11.904 0.779 0 1.446 0 2.336 0 21.472 3.56 51.734 20.471 70.87 50.176 16.243 25.255 20.694 54.182 12.794 83.553-12.238 45.615-50.065 60.412-82.107 54.96-27.258-4.673-48.285-25.255-53.625-52.402-1.446-7.677 3.56-15.131 11.237-16.688z" />
<glyph unicode="&#xe93f;" glyph-name="family" d="M139.626 396.934c-8.010-1.446-13.351-9.234-11.793-17.245s9.234-13.239 17.245-11.793 13.351 9.234 11.793 17.245c-1.446 8.010-9.234 13.351-17.245 11.793zM241.648 401.161c-1.558 8.010-9.234 13.351-17.245 11.793s-13.351-9.234-11.793-17.245c1.558-8.010 9.234-13.351 17.245-11.793 8.122 1.446 13.351 9.234 11.793 17.245zM222.734 363.779c-4.784 2.448-10.681 0.445-13.128-4.339-2.559-5.007-8.344-9.012-15.131-10.236-6.564-1.224-13.239 0.223-17.467 3.783-4.116 3.449-10.347 2.893-13.796-1.224s-2.893-10.347 1.224-13.796c6.675-5.674 15.798-8.789 25.366-8.789 2.67 0 5.452 0.334 8.344 0.89 12.794 2.448 23.586 10.124 28.927 20.582 2.448 4.784 0.445 10.681-4.339 13.128zM266.569 517.201c3.449 4.116 2.893 10.347-1.224 13.796-49.954 41.944-116.93 45.17-170.889 8.344-49.398-33.711-71.093-90.896-53.959-142.408-1.113-1.113-2.003-2.448-3.004-3.783-5.118-7.454-7.009-16.577-5.34-25.478 2.336-12.349 11.237-22.029 22.362-25.811 0.111-5.897 0.111-12.572 0.111-20.249 0-5.118 0-10.681 0-16.577 0.111-23.141 10.792-41.944 29.372-51.512 8.344-4.339 17.801-6.453 27.035-6.453 10.569 0 20.694 2.781 28.593 8.344 4.45 3.115 5.452 9.234 2.336 13.684s-9.234 5.452-13.684 2.336c-8.678-6.119-23.809-6.342-35.268-0.445-8.567 4.339-18.691 13.907-18.802 34.156 0 5.897 0 11.348 0 16.466 0 7.12 0 13.462 0 19.136 17.69-43.279 60.746-70.981 108.252-70.981 7.677 0 15.353 0.779 23.141 2.225l6.675 1.224c19.359 3.671 37.605 12.016 52.847 24.031 4.228 3.449 4.895 9.568 1.558 13.796-3.449 4.228-9.568 4.895-13.796 1.558-12.794-10.124-28.037-17.133-44.28-20.137l-6.675-1.224c-49.286-9.346-98.684 19.359-112.591 65.307-1.558 5.118-6.898 8.010-11.904 6.675-1.335-0.111-2.781-0.668-4.005-1.446-1.558-1.001-3.226-1.669-5.007-2.003-7.788-1.446-15.465 3.783-16.911 11.571-0.779 3.783 0 7.565 2.225 10.792 2.114 3.115 5.34 5.34 9.123 6.008 0.89-4.673 4.895-8.010 9.568-8.010 0.334 0 0.668 0.111 1.113 0 5.34 0.556 9.234 5.452 8.678 10.792-3.226 30.039 23.141 56.407 61.525 61.302 1.78 0.223 4.116 0.445 6.787 0.668 17.245 1.446 46.282 4.005 61.747 20.805 3.671 3.894 3.449 10.124-0.556 13.796-3.894 3.671-10.124 3.449-13.796-0.556-10.347-11.237-35.491-13.462-49.064-14.575-3.004-0.334-5.563-0.556-7.565-0.779-41.276-5.229-71.76-31.152-77.879-63.638-1.335-0.111-2.781-0.223-4.116-0.556-0.445-0.111-1.001-0.223-1.446-0.334-12.016 42.722 6.342 87.67 47.729 116.040 35.268 24.143 95.013 36.714 147.192-7.12 4.116-3.449 10.347-2.893 13.796 1.224zM249.436 446.22c2.893 0 5.785 1.335 7.677 3.783 3.338 4.228 2.448 10.347-1.78 13.684-12.461 9.568-21.472 21.584-22.807 30.484-0.779 5.34-5.785 9.012-11.126 8.233s-9.012-5.785-8.233-11.126c2.114-14.018 13.462-30.15 30.262-43.056 1.78-1.335 3.894-2.003 6.008-2.003zM807.496 387.811c2.003 7.343-2.225 14.908-9.568 16.911s-14.908-2.225-16.911-9.568c-2.114-7.232 2.225-14.797 9.568-16.911 7.343-2.003 14.908 2.225 16.911 9.568zM867.685 356.77c7.232-2.003 14.797 2.336 16.911 9.568 2.003 7.343-2.225 14.908-9.568 16.911s-14.908-2.225-16.911-9.568 2.225-14.908 9.568-16.911zM816.396 315.272c3.671-1.001 7.454-1.558 11.237-1.558 8.122 0 15.798 2.336 21.806 7.009 4.339 3.226 5.229 9.346 2.003 13.684s-9.346 5.229-13.684 2.003c-4.005-3.004-10.236-3.894-16.132-2.225-5.785 1.669-10.569 5.452-12.572 9.902-2.225 4.895-8.010 7.232-12.906 5.007s-7.232-8.010-5.007-12.906c4.339-9.902 13.796-17.69 25.255-20.916zM862.234 475.925c2.781 4.561 1.224 10.569-3.449 13.351-4.561 2.781-10.569 1.224-13.351-3.449-5.785-9.791-20.471-20.026-38.606-19.915 2.67 2.114 5.34 4.45 7.788 7.009 3.783 3.783 3.783 10.013-0.111 13.796-3.783 3.783-10.013 3.783-13.796-0.111-5.118-5.229-11.014-9.457-17.69-12.683-7.788-3.783-16.021-5.897-24.588-6.342-5.34-0.223-9.568-4.784-9.234-10.236 0.334-5.229 4.561-9.234 9.791-9.234 0.223 0 0.334 0 0.445-0.223 7.12 0.445 14.13 1.78 20.916 3.894 9.234-3.894 18.357-5.563 27.146-5.563 23.809 0 44.725 12.572 54.738 29.705zM736.848 498.51c1.558-0.89 3.338-1.335 5.007-1.335 3.338 0 6.564 1.669 8.344 4.784 8.010 13.462 19.247 22.029 30.039 25.923-0.668-3.338 0.556-7.009 3.338-9.346 4.116-3.449 10.347-2.893 13.796 1.224 7.677 9.012 32.932 25.478 60.078 24.365 18.023-0.779 33.043-9.568 44.614-26.034 1.891-2.67 4.895-4.116 8.010-4.116 2.003 0 4.005 0.668 5.563 1.78 4.45 3.115 5.563 9.234 2.448 13.684-15.020 21.361-35.713 33.266-59.856 34.267-20.582 0.89-40.497-6.119-55.405-14.908-24.031 5.452-53.403-9.902-69.424-36.826-2.781-4.673-1.224-10.681 3.449-13.462zM966.592 500.402c-0.445 0.556-10.681 11.904-27.369 22.696-4.561 3.004-10.681 1.669-13.573-2.893-3.004-4.561-1.669-10.681 2.893-13.573 14.352-9.234 23.252-19.136 23.698-19.581 25.478-25.811 27.48-56.629 6.23-91.786 1.001 18.914-10.903 35.491-35.491 49.286-10.124 5.674-22.585 16.021-27.146 27.814-1.224 3.338-1.891 6.564-1.78 9.791 0.111 5.34-4.116 9.902-9.568 10.013 0 0-0.111 0-0.223 0-5.34 0-9.679-4.228-9.791-9.568-0.111-5.674 0.89-11.571 3.115-17.245 8.122-21.027 29.483-34.267 35.824-37.827 19.804-11.237 27.703-22.14 25.033-35.268-1.669-1.891-2.559-4.45-2.448-7.12 0.334-5.34 5.118-9.346 10.458-9.012 1.446 0.111 2.893 0 4.339-0.445 6.675-1.891 10.681-8.9 8.789-15.687-0.89-3.338-3.004-6.008-6.008-7.677s-6.453-2.114-9.679-1.224c-1.558 0.445-3.004 1.113-4.228 2.114-4.228 3.226-10.458 2.448-13.684-1.891s-2.448-10.458 1.891-13.684c0.556-0.334 1.001-0.668 1.558-1.113-4.561 0.89-9.234-1.446-11.014-5.897-16.243-40.72-63.527-62.971-107.696-50.51l-6.008 1.669c-21.361 6.008-39.83 19.47-51.957 37.716-3.004 4.561-9.012 5.785-13.573 2.781s-5.785-9.123-2.781-13.573c14.686-22.14 37.048-38.383 62.971-45.726l6.008-1.669c10.458-2.893 20.916-4.339 31.152-4.339 43.612 0 83.664 25.366 100.019 66.42 1.446 3.671 0.556 7.788-2.114 10.458 1.335-0.556 2.781-1.113 4.228-1.558 2.893-0.779 5.785-1.224 8.678-1.224 5.563 0 11.014 1.335 15.91 4.228 7.565 4.228 12.906 11.126 15.242 19.47 2.781 9.791 0.556 19.804-5.007 27.591 37.271 58.743 11.682 99.24-6.898 118.043zM729.394 420.631c0 22.474-10.013 41.387-25.478 51.734 4.561 1.446 8.233 5.34 9.012 10.458 14.463 87.336-28.482 137.846-73.429 156.092-6.675 2.67-14.352-0.556-17.022-7.232s0.556-14.352 7.232-17.022c54.404-21.917 65.307-80.327 57.519-127.611-0.445-2.781 0-5.452 1.113-7.788-0.779 0.223-1.558 0.445-2.448 0.556-1.001 4.673-4.561 8.678-9.568 10.013-38.050 9.679-67.532 71.426-66.42 115.929 0.223 7.232-5.452 13.128-12.683 13.351-5.897 0.334-11.237-3.894-12.906-9.568-0.556-0.668-1.113-1.446-1.446-2.336-20.471-40.831-76.989-38.161-104.136-36.826-4.895 0.223-8.678 0.445-11.682 0.334-34.934-1.224-66.309-15.131-88.56-39.162-13.573-14.575-22.919-32.375-27.703-51.845-5.118 1.446-10.458 2.114-15.798 1.891-2.448-0.111-4.784-0.445-7.12-0.89-9.012 88.56 44.391 147.414 98.239 173.337 62.081 29.817 130.615 22.251 170.555-18.802 5.007-5.118 13.351-5.229 18.468-0.223s5.229 13.351 0.223 18.468c-47.84 49.175-128.389 58.854-200.595 24.143-62.86-30.262-125.497-99.908-112.257-204.711 0.223-1.446 0.556-2.781 1.113-4.005-13.017-11.459-20.582-29.594-19.47-50.399 1.001-19.581 9.679-36.603 22.474-47.618-0.668-10.792-4.005-28.593-8.567-52.29-1.446-7.343-2.893-15.131-4.45-23.586-8.233-44.391 13.684-68.979 27.48-79.771 14.797-11.459 33.377-17.578 51.066-17.578 9.679 0 18.914 1.78 26.924 5.563 6.564 2.893 9.457 10.681 6.453 17.245-2.893 6.564-10.681 9.457-17.245 6.453-14.352-6.564-36.381-2.67-51.289 8.9-11.126 8.678-23.364 25.255-17.912 54.515 1.558 8.344 3.115 16.243 4.45 23.475 3.56 19.025 6.453 33.711 7.899 45.17 2.559-0.445 5.229-0.668 8.010-0.668 0.779 0 1.669 0 2.448-0.111 5.229 0.223 10.347 1.446 15.353 3.338 4.339-22.14 12.349-56.407 22.919-75.765 24.143-44.391 67.977-76.433 120.268-87.781l25.811-0.334 1.446 0.334c52.29 11.348 96.125 43.39 120.268 87.781 10.013 18.357 17.69 49.954 22.14 72.094 1.558-0.111 3.115-0.223 4.673-0.223 3.115 0 6.119 0.334 9.012 0.89 1.891-11.126 4.895-25.255 8.789-43.056 1.558-7.232 3.226-15.131 5.007-23.475 6.23-29.149-5.563-45.949-16.466-54.96-14.575-12.016-36.492-16.466-50.955-10.236-6.675 2.781-14.352-0.223-17.133-6.898s0.223-14.352 6.898-17.133c7.788-3.338 16.466-4.895 25.366-4.895 18.246 0 37.605 6.675 52.513 19.025 13.573 11.014 34.823 36.269 25.478 80.438-1.891 8.455-3.56 16.243-5.118 23.586-4.895 22.251-8.567 39.385-9.679 50.288 12.794 11.459 20.916 29.372 20.916 49.398zM523.571 223.819h-18.802c-44.28 10.013-81.217 37.048-101.577 74.43-11.571 21.25-21.139 70.87-23.809 88.226-1.113 7.12-7.788 12.016-14.908 10.903-5.118-0.779-9.012-4.45-10.458-9.012-1.335-0.223-2.67-0.668-3.894-1.335-3.004-1.558-6.23-2.448-9.457-2.67-15.687-0.779-29.26 15.131-30.373 35.491-1.001 19.804 10.013 34.712 26.145 35.602 2.893 0.223 6.008-0.223 8.9-1.335 0.668-0.223 1.335-0.445 2.114-0.556-0.111-3.115-0.111-6.23 0-9.346 0.223-7.009 6.008-12.461 13.017-12.461 0.223 0 0.445 0 0.445 0 7.12 0.334 12.794 6.342 12.461 13.573-1.113 26.145 7.565 50.51 24.254 68.534 17.467 18.914 42.5 29.817 70.314 30.818 1.891 0 5.452-0.111 9.568-0.334 24.81-1.224 76.767-3.671 110.143 26.59 8.678-39.83 32.042-80.104 63.193-98.239-2.67-3.56-3.338-8.455-1.446-12.794 2.893-6.564 10.569-9.679 17.133-6.787 2.781 1.224 5.785 1.891 8.789 1.891 16.132 0 27.925-14.352 27.925-34.156 0-20.249-12.683-36.826-28.37-36.937 0.334 6.564-4.339 12.572-11.014 13.573-7.009 1.113-13.796-3.783-14.908-10.903-0.334-1.891-0.668-4.116-1.113-6.675 0 0 0 0 0 0-1.001-2.114-1.335-4.339-1.113-6.453-4.116-22.251-12.238-57.853-21.584-75.098-20.36-37.493-57.297-64.528-101.577-74.542zM549.048 326.063c-22.696-19.915-63.861-19.915-86.446 0-5.452 4.784-13.684 4.339-18.468-1.113s-4.339-13.684 1.113-18.468c16.355-14.463 38.383-21.695 60.412-21.695s44.169 7.232 60.635 21.584c5.452 4.784 6.008 13.017 1.224 18.468s-13.017 6.008-18.468 1.224zM625.481 473.255c-17.356 15.242-52.402 19.804-73.54 9.457-6.453-3.226-9.123-11.014-6.008-17.467 3.226-6.453 11.014-9.123 17.467-6.008 11.571 5.674 35.491 2.67 44.836-5.563 2.559-2.114 5.563-3.226 8.678-3.226 3.56 0 7.12 1.446 9.679 4.339 4.784 5.452 4.339 13.684-1.113 18.468zM459.598 453.452c6.453-3.115 14.352-0.445 17.467 6.008s0.445 14.352-6.008 17.467c-21.139 10.347-56.184 5.897-73.54-9.457-5.34-4.784-5.897-13.017-1.113-18.468 2.559-3.004 6.23-4.45 9.791-4.45 3.004 0 6.119 1.113 8.567 3.226 9.346 8.344 33.266 11.348 44.836 5.674zM457.596 403.72c0-8.91-7.223-16.132-16.132-16.132s-16.132 7.223-16.132 16.132c0 8.91 7.223 16.132 16.132 16.132s16.132-7.223 16.132-16.132zM588.878 403.72c0-8.91-7.223-16.132-16.132-16.132s-16.132 7.223-16.132 16.132c0 8.91 7.223 16.132 16.132 16.132s16.132-7.223 16.132-16.132z" />
<glyph unicode="&#xe940;" glyph-name="laptop" d="M872.581 301.142c0.111 0.89 0.223 1.78 0.223 2.781v356.909c0 28.704-23.809 52.068-53.069 52.068h-615.802c-29.26 0-53.069-23.364-53.069-52.068v-356.909c0-1.001 0.111-1.891 0.334-2.893-10.124-4.895-17.133-15.242-17.133-27.258v-57.853c0-16.688 13.573-30.373 30.373-30.373h695.127c16.8 0 30.373 13.684 30.373 30.373v57.853c0 12.016-7.12 22.474-17.356 27.369zM204.043 684.419h615.802c13.573 0 24.699-10.569 24.699-23.586v-356.687h-29.817v328.65c0 12.906-10.569 23.475-23.475 23.475h-558.616c-12.906 0-23.475-10.458-23.475-23.475v-328.65h-29.817v356.687c0 13.017 11.126 23.586 24.699 23.586zM786.357 304.146h-548.714v323.755h548.714v-323.755zM861.566 215.92c0-1.113-0.89-2.003-2.003-2.003h-695.127c-1.113 0-2.003 0.89-2.003 2.003v57.853c0 1.113 0.89 2.003 2.003 2.003h695.127c1.113 0 2.003-0.89 2.003-2.003v-57.853zM552.831 259.199h-81.551c-7.899 0-14.241-6.342-14.241-14.241s6.342-14.241 14.241-14.241h81.551c7.788 0 14.241 6.342 14.241 14.241s-6.342 14.241-14.241 14.241zM421.66 439.1l48.841-38.272c3.226-2.225 6.787-3.449 10.236-3.449 4.116 0 8.010 1.446 12.461 5.007l110.477 112.257c6.675 6.564 6.675 17.022 0 23.698-6.564 6.453-17.356 6.453-23.809 0l-100.242-101.577-37.048 28.815c-7.454 5.674-17.801 4.45-23.698-2.781-5.674-7.454-4.45-17.801 2.781-23.698z" />
<glyph unicode="&#xe941;" glyph-name="refer-friend" d="M674.879 645.479c1.113-0.223 2.225-0.334 3.226-0.334 6.453 0 12.238 4.45 13.796 11.014l28.482 120.713c1.78 7.677-2.893 15.353-10.569 17.133-7.565 1.78-15.353-2.893-17.133-10.569l-28.482-120.713c-1.669-7.788 3.004-15.465 10.681-17.245zM712.706 630.126c2.67-4.339 7.343-6.787 12.127-6.787 2.559 0 5.118 0.668 7.454 2.114l104.024 64.083c6.675 4.116 8.789 12.906 4.673 19.581s-12.906 8.789-19.581 4.673l-104.024-64.083c-6.787-4.116-8.789-12.906-4.673-19.581zM861.678 565.264l-116.93 35.379c-7.565 2.336-15.465-2.003-17.69-9.457-2.225-7.565 2.003-15.465 9.457-17.69l116.93-35.379c1.335-0.445 2.781-0.668 4.116-0.668 6.119 0 11.793 4.005 13.573 10.124 2.336 7.454-1.891 15.353-9.457 17.69zM752.313 361.332c0 20.471-7.788 37.938-19.692 47.618 5.674 9.902 9.234 21.695 9.234 33.599 0.111 24.254-9.568 38.272-21.361 48.396-0.668 0.779-1.446 1.558-2.225 2.225-3.115 2.448-6.453 4.561-9.902 6.564-0.556 0.334-1.001 0.668-1.558 1.001-0.779 0.445-1.446 0.779-2.225 1.113-40.942 21.695-102.801 20.805-150.529 11.793-1.78-0.334-3.338-1.001-4.784-1.891 7.565 16.132 30.707 71.538 30.707 146.524 0 42.389-26.59 70.425-51.4 82.441-23.586 11.459-48.396 10.458-64.862-2.448-10.013-7.899-25.478-27.369-16.355-68.979 19.359-88.449-39.051-139.96-41.721-142.296-6.008-5.118-6.675-14.018-1.558-20.026s14.018-6.675 20.026-1.669c3.004 2.559 74.208 64.417 51.066 169.999-4.339 19.692-2.114 34.044 6.119 40.608 7.677 6.008 21.361 5.674 34.823-0.779 17.133-8.344 35.379-27.591 35.379-56.852 0-80.327-29.483-137.401-29.705-137.957l-1.001-2.448c-8.455-27.369 2.781-49.62 30.262-59.522 1.558-0.556 3.226-0.89 4.784-0.89 5.785 0 11.237 3.56 13.351 9.346 2.67 7.343-1.113 15.576-8.567 18.246-0.556 0.223-1.001 0.334-1.558 0.556 0.111 0 0.111 0 0.223 0 54.293 10.347 105.248 6.342 133.952-10.124 12.238-7.899 20.249-14.908 20.137-32.932 0-16.8-13.351-31.93-18.468-31.93-7.899 0-14.241-6.342-14.241-14.241s6.342-14.241 14.241-14.241c6.23 0 12.349 2.114 18.135 5.674 4.895-2.559 10.681-12.461 10.681-26.59 0-15.687-15.687-27.703-22.14-27.703-7.899 0-14.241-6.342-14.241-14.241s6.342-14.241 14.241-14.241c3.671 0 7.454 0.668 11.237 1.891 0.89-0.556 1.891-0.89 2.893-1.224 5.563-1.669 11.682-15.131 8.233-31.597-1.113-5.452-5.674-10.903-12.461-14.908-3.449-2.114-7.009-3.449-10.013-4.228-1.558 0-3.115-0.334-4.561-0.779-1.78-0.111-3.115-0.111-4.005 0.223-7.565 2.336-15.465-2.003-17.69-9.457-2.225-7.565 2.003-15.465 9.457-17.69 3.338-1.001 6.898-1.446 10.681-1.446 1.669 0 3.338 0.111 5.118 0.334 4.784-3.115 8.010-11.793 5.452-21.917-1.001-3.894-4.116-8.122-7.12-10.903-0.445-0.334-1.001-0.668-1.446-1.001-0.668-0.556-1.335-1.113-2.003-1.558 0 0-0.111 0-0.111-0.111-38.050-29.594-101.132-48.953-291.268 2.67-5.34 1.446-10.681-0.334-14.13-4.116 15.131 110.366 14.352 225.627-2.67 319.527-3.338 18.691-20.026 31.597-38.828 30.039l-162.99-13.017c-7.788-0.668-13.684-7.454-13.017-15.353 0.668-7.788 7.454-13.684 15.353-13.017l162.99 12.906c4.228 0.223 7.788-2.559 8.567-6.787 17.467-97.015 17.245-217.839-0.668-331.543-0.668-4.116-4.228-7.12-8.344-6.787l-109.476 6.119c-7.565 0.223-14.575-5.563-15.020-13.351s5.563-14.575 13.351-15.020l109.476-6.119c0.668 0 1.446-0.111 2.114-0.111 17.912 0 33.154 12.906 35.936 30.818 0.334 1.891 0.556 3.783 0.89 5.674 1.78-3.56 4.895-6.342 9.012-7.454 87.336-23.698 150.084-32.821 196.589-32.821 61.080 0 94.456 15.798 119.489 35.157 7.677 5.229 17.467 15.687 20.916 29.149 3.56 14.241 1.446 28.37-4.895 39.162 12.349 8.122 20.582 19.359 23.252 31.93 4.561 22.362-1.224 44.057-13.684 56.184 8.344 9.902 14.13 22.696 14.13 36.826zM308.735 223.485c1.113-0.223 2.225-0.334 3.226-0.334 6.453 0 12.349 4.45 13.796 11.014 8.678 37.271 15.242 215.28 0.334 231.969-5.229 5.897-14.241 6.342-20.026 1.113-5.007-4.45-6.119-11.793-3.004-17.467 5.007-19.136 5.452-164.436-5.007-209.161-1.669-7.677 3.115-15.353 10.681-17.133z" />
<glyph unicode="&#xe942;" glyph-name="payment" d="M808.275 693.319h-592.327c-29.26 0-52.958-23.809-52.958-52.958v-389.841c0-26.368 21.472-47.84 47.84-47.84h597.333c29.149 0 52.958 23.698 53.069 52.847v384.834c0 29.26-23.809 52.958-52.958 52.958zM215.837 664.504v-0.111h592.327c13.239 0 24.031-10.792 24.031-24.031v-68.089c-2.67 0.668-5.563 1.113-8.455 1.113h-623.478c-2.893 0-5.785-0.334-8.455-1.113v68.2c0 13.239 10.792 24.031 24.031 24.031zM808.163 231.607h-597.333c-10.458 0-19.025 8.567-19.025 19.025v255.777c2.67-0.668 5.563-1.113 8.455-1.113h623.478c2.893 0 5.785 0.334 8.455 1.113v-250.771c0-13.239-10.792-24.031-24.031-24.031zM509.664 290.017h-275.025c-8.010 0-14.463-6.453-14.463-14.463s6.453-14.463 14.463-14.463h275.025c7.899 0 14.463 6.453 14.463 14.463s-6.453 14.463-14.463 14.463zM234.639 311.711h138.959c7.899 0 14.463 6.453 14.463 14.463s-6.453 14.463-14.463 14.463h-138.959c-8.010 0-14.463-6.453-14.463-14.463s6.453-14.463 14.463-14.463z" />
<glyph unicode="&#xe943;" glyph-name="toddler" d="M439.906 384.362c0-19.478-15.79-35.268-35.268-35.268s-35.268 15.79-35.268 35.268c0 19.478 15.79 35.268 35.268 35.268s35.268-15.79 35.268-35.268zM645.841 384.362c0-19.478-15.79-35.268-35.268-35.268s-35.268 15.79-35.268 35.268c0 19.478 15.79 35.268 35.268 35.268s35.268-15.79 35.268-35.268zM512.111 244.402c28.704 0 55.072 12.127 70.87 32.375 5.229 6.898 4.005 16.8-2.893 22.029s-16.8 4.005-22.029-2.893c-9.568-12.461-27.146-20.249-45.949-20.249-18.468 0-35.379 7.232-45.281 19.359-5.452 6.675-15.353 7.677-22.029 2.225s-7.677-15.353-2.225-22.029c15.798-19.247 41.721-30.818 69.535-30.818zM811.167 326.842c36.937 3.894 65.641 35.157 65.752 72.984 0 25.033-12.572 47.173-31.708 60.523 16.132 115.484-41.61 182.571-102.022 207.047-8.010 3.226-17.133-0.668-20.36-8.678s0.668-17.133 8.678-20.36c71.538-28.927 90.117-102.133 83.553-165.994-3.783 0.668-7.788 1.001-11.682 1.001-7.677 0-15.242-1.224-22.474-3.449-20.471 0.111-49.175 16.8-74.875 43.612-30.15 31.152-49.064 67.977-48.174 93.566 0.334 8.678-6.453 15.91-15.131 16.243-8.567 0.334-15.91-6.453-16.243-15.131-1.446-40.942 28.482-87.002 56.963-116.485 32.598-33.822 68.2-53.18 97.683-53.18 0.89 0 1.669 0.111 2.559 0.223 1.78 0 3.671 0.223 5.452 0.89 4.561 1.669 9.346 2.448 14.241 2.448 23.252 0 42.166-18.914 42.166-42.166s-18.914-42.166-42.166-42.166c-5.452 0-10.569 1.001-15.465 2.893-3.671 1.446-7.565 1.446-11.014 0.223-7.232-0.779-13.128-6.453-13.907-13.907-12.349-118.043-119.044-210.496-242.872-210.496h-16.132c-123.494 0-230.189 92.12-242.761 209.829-0.89 8.567-8.567 14.686-17.245 13.907 0 0 0 0 0 0-2.559 0.334-5.118 0-7.677-1.001-4.895-1.891-10.124-2.893-15.465-2.893-23.252 0-42.166 18.914-42.166 42.166s18.914 42.166 42.166 42.166c2.781 0 5.452-0.223 8.010-0.779-0.223-2.003-0.445-3.894-0.556-5.897-0.668-8.567 5.674-16.132 14.352-16.8 0.445 0 0.779 0 1.224 0 8.122 0 15.020 6.23 15.687 14.352 5.897 76.099 82.997 129.391 179.456 123.605 4.339-0.223 10.013-0.779 16.466-1.446 40.163-4.116 107.362-10.903 148.638 20.026 6.898 5.118 8.344 15.020 3.115 21.917-5.118 6.898-15.020 8.344-21.917 3.115-31.485-23.586-93.455-17.245-126.721-13.907-7.009 0.668-13.128 1.224-17.801 1.558-98.239 5.785-179.901-42.389-205.045-116.040-4.895 1.001-9.902 1.558-15.020 1.558-3.671 0-7.232-0.223-10.681-0.779-12.572 103.134 39.83 196.033 141.073 249.325 110.366 58.187 239.645 51.066 314.298-17.356 6.342-5.785 16.243-5.34 22.14 1.001 5.785 6.342 5.34 16.243-1.001 22.14-84.221 77.212-228.186 86.223-350.123 22.029-114.927-60.635-173.559-167.551-156.76-286.262 0.111-0.779 0.334-1.558 0.556-2.336-19.915-13.128-33.043-35.713-33.043-61.302 0-36.047 26.034-65.975 60.189-72.316 0-0.668 0.111-1.446 0.223-2.114 0.111-0.556 7.454-46.839-7.677-93.566-8.010 2.67-14.018 3.894-15.687 4.116-8.567 1.558-16.577-4.228-18.135-12.683-1.446-8.455 4.228-16.577 12.683-18.135 2.114-0.334 5.007-1.113 8.455-2.225-3.449-6.008-7.343-11.904-11.904-17.467-5.452-6.675-4.339-16.577 2.336-22.029 3.004-2.336 6.453-3.449 9.902-3.449 4.561 0 9.123 1.891 12.127 5.785 5.674 7.009 10.681 14.352 14.908 21.917 1.891-1.891 3.449-4.005 4.784-6.342 2.781-5.229 8.122-8.122 13.684-8.122 2.67 0 5.229 0.668 7.677 2.003 7.565 4.116 10.347 13.684 6.119 21.25-4.784 8.678-11.459 15.465-18.691 20.916 9.791 27.591 12.461 54.96 12.794 75.877 34.934-109.365 139.96-186.576 263.12-186.576h16.132c115.817 0 218.395 72.094 258.003 173.114 1.113-18.691 4.561-40.608 12.349-62.637-7.232-5.563-13.796-12.572-18.468-21.472-4.005-7.677-1.113-17.133 6.564-21.139 2.225-1.224 4.784-1.78 7.232-1.78 5.563 0 11.014 3.115 13.907 8.344 1.113 2.225 2.67 4.228 4.339 6.119 4.228-7.343 9.012-14.463 14.686-21.361 3.115-3.783 7.677-5.785 12.238-5.785 3.449 0 6.898 1.113 9.791 3.449 6.787 5.452 7.788 15.242 2.336 22.029-4.561 5.674-8.567 11.682-12.127 17.801 3.56 1.224 6.675 2.003 8.789 2.448 8.455 1.669 14.018 9.902 12.349 18.357s-9.902 14.018-18.357 12.349c-1.558-0.334-7.565-1.558-15.242-4.339-15.020 46.728-7.788 92.787-7.677 93.344 0.111 0.89 0.223 1.78 0.223 2.781z" />
<glyph unicode="&#xe944;" glyph-name="teen-adult" d="M593.884 274.886c-36.603-32.153-100.575-32.153-136.956 0-5.785 5.229-14.797 4.673-20.026-1.224-5.229-5.785-4.673-14.797 1.224-20.026 23.586-20.805 55.405-31.263 87.225-31.263s63.638 10.347 87.225 31.152c5.897 5.118 6.564 14.13 1.335 20.026-5.118 5.897-14.13 6.564-20.026 1.335zM415.541 419.63c-13.351 0-24.143-10.792-24.143-24.143s10.792-24.143 24.143-24.143 24.143 10.792 24.143 24.143-10.903 24.254-24.143 24.143zM612.464 419.63c-13.351 0.111-24.143-10.792-24.143-24.143s10.792-24.143 24.143-24.143 24.143 10.792 24.143 24.143-10.792 24.143-24.143 24.143zM688.452 496.063c-24.254 21.361-75.098 27.925-104.581 13.462-7.12-3.449-10.013-12.016-6.564-19.025 3.449-7.12 12.016-10.013 19.025-6.564 19.247 9.457 57.519 4.561 73.206-9.234 2.67-2.336 6.008-3.56 9.346-3.56 3.894 0 7.788 1.558 10.792 4.895 5.229 5.785 4.673 14.797-1.224 20.026zM445.135 474.924c7.12-3.449 15.576-0.445 19.025 6.564s0.445 15.576-6.564 19.025c-29.594 14.463-80.327 7.899-104.581-13.462-5.897-5.118-6.453-14.13-1.224-20.026 2.781-3.115 6.787-4.784 10.681-4.784 3.338 0 6.675 1.224 9.457 3.449 15.687 13.796 53.959 18.691 73.206 9.234zM700.134 717.239c84.555-34.156 101.799-124.384 89.672-197.479-1.335-7.788 3.894-15.020 11.682-16.355 0.779-0.111 1.558-0.223 2.336-0.223 6.898 0 12.906 5.007 13.907 11.904 21.139 127.944-41.387 201.93-107.028 228.52-7.232 2.893-15.576-0.668-18.468-7.899s0.668-15.465 7.899-18.468zM825.964 270.213c-7.677 35.379-13.462 62.192-15.020 78.658 19.136 16.243 31.485 42.611 31.485 72.316 0 44.391-27.146 78.658-64.64 84.332 0.111 6.453-4.228 12.238-10.681 14.018-49.731 12.683-105.916 93.9-103.802 179.456 0.111 7.899-6.008 14.352-13.907 14.575-7.12 0-13.017-4.784-14.241-11.571-0.89-1.001-1.669-2.003-2.336-3.226-32.153-64.417-119.489-60.189-161.432-58.187-7.232 0.334-12.906 0.556-17.133 0.445-50.844-1.78-96.793-22.029-129.168-57.074-21.027-22.696-35.268-50.621-41.61-81.217-0.223 0.111-0.334 0.111-0.556 0.223-8.789 3.226-17.801 4.561-26.924 4.116-5.34-0.334-10.569-1.113-15.576-2.559-17.133 139.070 66.086 231.524 149.751 271.91 95.235 45.837 200.595 34.044 262.23-29.372 5.563-5.563 14.463-5.674 20.137-0.223 5.563 5.452 5.674 14.463 0.223 20.137-70.091 72.205-188.69 86.335-294.94 35.157-92.787-44.725-185.019-147.414-165.549-301.949 0.334-3.115 1.669-5.785 3.671-7.899-4.673-3.671-9.012-7.899-12.906-12.683-13.017-16.355-19.47-38.161-18.246-61.525 1.446-28.927 14.686-54.070 33.933-69.424-0.779-16.243-6.008-44.169-13.128-81.662-2.114-11.014-4.339-22.807-6.675-35.491-11.793-63.861 19.581-99.24 39.385-114.594 21.139-16.577 47.951-25.366 73.206-25.366 13.684 0 26.924 2.559 38.606 7.899 7.12 3.226 10.236 11.682 7.009 18.802s-11.682 10.236-18.802 7.009c-23.586-10.792-58.298-4.895-82.552 14.018-25.255 19.692-35.491 50.621-28.815 87.002 2.336 12.683 4.561 24.476 6.675 35.379 6.008 31.597 10.458 55.517 12.461 73.206 5.229-1.335 10.681-2.114 16.355-2.114 1.113 0 2.225 0.111 3.56 0.111 9.457 0.556 18.58 3.115 27.146 7.454 6.119-32.153 18.58-88.671 35.268-119.378 35.491-65.196 100.019-112.257 177.008-129.057l37.048-0.334 1.669 0.334c76.989 16.688 141.518 63.75 177.008 129.057 15.465 28.37 27.258 78.769 33.711 111.701 3.56-0.556 7.232-0.89 11.014-0.89 6.23 0 12.349 0.89 18.246 2.559 2.559-17.356 7.565-40.163 14.018-70.091 2.336-10.903 4.895-22.696 7.565-35.379 7.677-36.269-1.78-67.421-26.59-87.781-23.698-19.581-58.298-26.256-82.107-16.132-7.232 3.115-15.576-0.223-18.691-7.454s0.223-15.576 7.454-18.691c10.903-4.673 23.252-6.898 35.936-6.898 26.145 0 53.959 9.568 75.432 27.258 19.359 15.91 49.843 52.068 36.381 115.595-2.67 12.683-5.229 24.476-7.565 35.491zM765.775 360.219c-1.891 0-3.783 0.111-5.674 0.445 0.334 2.003 0.556 3.338 0.556 3.671 1.113 7.788-4.116 15.020-11.904 16.243-7.677 1.113-15.020-4.116-16.243-11.904 0-0.223-0.668-4.005-1.78-10.347-0.223-0.334-0.445-0.779-0.556-1.113-1.335-2.67-1.669-5.674-1.113-8.455-5.563-29.928-17.578-86.112-32.932-114.26-31.374-57.631-88.449-99.352-156.648-114.594h-29.372c-68.311 15.242-125.274 56.963-156.648 114.594-21.361 39.273-36.269 133.285-36.381 134.175-1.224 7.788-8.567 13.128-16.243 11.904-6.675-1.001-11.459-6.453-12.016-12.906-2.67 0.223-5.34-0.334-7.788-1.669-5.118-2.781-10.681-4.339-16.466-4.673-26.59-1.224-49.509 24.81-51.289 58.298-0.89 16.355 3.449 31.374 12.127 42.277 8.010 10.124 19.47 16.132 32.153 16.8 5.229 0.223 10.569-0.556 15.576-2.448 2.225-0.779 4.561-1.001 6.675-0.779-0.334-6.23-0.445-12.461-0.111-18.802 0.334-7.677 6.675-13.684 14.241-13.684 0.223 0 0.334 0 0.556 0 7.788 0.334 13.907 6.898 13.573 14.797-1.669 40.72 11.793 78.658 37.827 106.806 27.146 29.372 65.975 46.394 109.253 47.951 3.115 0.111 8.567-0.111 14.797-0.445 38.161-1.78 120.379-5.785 168.33 45.059 11.237-64.083 49.175-131.171 100.353-157.093-6.23-3.56-8.9-11.237-6.008-17.912 3.115-7.232 11.459-10.569 18.691-7.454 4.895 2.114 10.124 3.226 15.353 3.226 27.369 0 47.284-23.809 47.284-56.741 0-33.599-21.695-60.968-48.174-60.968z" />
<glyph unicode="&#xe945;" glyph-name="piggy-bank" d="M334.799 445.819c2.175-13.404-6.927-26.034-20.331-28.209s-26.034 6.927-28.209 20.331c-2.175 13.404 6.927 26.034 20.331 28.209s26.034-6.927 28.209-20.331zM514.225 665.617c29.817 0 54.070 24.254 54.070 54.070s-24.254 54.070-54.070 54.070-54.070-24.254-54.070-54.070c0-29.817 24.254-54.070 54.070-54.070zM514.225 753.064c18.357 0 33.266-14.908 33.266-33.266s-14.908-33.266-33.266-33.266-33.266 14.908-33.266 33.266 14.908 33.266 33.266 33.266zM493.754 791.67c5.674 0 10.347 4.673 10.347 10.347v61.191c0 5.674-4.673 10.347-10.347 10.347s-10.347-4.561-10.347-10.347v-61.191c0-5.674 4.561-10.347 10.347-10.347zM529.578 787.776c5.785 0 10.458 4.673 10.347 10.347v92.342c0 5.674-4.561 10.347-10.347 10.347-5.674 0-10.347-4.561-10.347-10.347v-92.342c0-5.674 4.561-10.347 10.347-10.347zM887.155 476.815c-5.674 0.779-10.903-3.338-11.682-9.012-5.34-41.61-17.801-56.963-27.258-62.415-3.783-2.225-7.454-3.115-10.681-3.226-5.785 126.164-147.414 227.296-320.64 227.296-62.415 0-122.604-13.017-174.672-37.827-3.115 2.67-5.785 5.897-7.788 9.457l-18.691 32.487c-1.78 5.563-6.23 10.013-12.016 11.571-7.565 2.003-15.576-1.224-19.47-8.010-15.353-26.256-24.143-55.294-32.709-83.442-9.234-30.595-18.023-59.522-34.489-85.333-7.343-11.571-12.461-11.904-31.374-11.904h-4.005c-39.051 0-70.759-31.708-70.759-70.759v-41.165c0-39.051 31.708-70.759 70.759-70.759h59.188c17.801-22.029 40.163-41.61 66.642-58.298v-113.704c0-20.249 16.466-36.826 36.826-36.826h24.031c20.249 0 36.826 16.466 36.826 36.826v71.426c35.713-9.791 73.206-14.686 111.59-14.686 48.619 0 96.904 8.233 140.405 23.698v-80.438c0-20.249 16.466-36.826 36.826-36.826h24.031c20.36 0 36.826 16.466 37.159 36.937 0 4.228-0.556 104.803-1.446 133.173 50.288 40.275 79.548 91.897 83.553 146.302 6.119 0.223 13.351 1.558 20.805 5.785 20.026 11.237 32.821 37.493 38.050 77.99 0.668 5.785-3.338 10.903-9.012 11.682zM735.736 257.085c-7.232-5.785-11.126-14.241-10.792-23.252 1.001-27.814 1.558-131.171 1.558-132.172 0-4.561-3.894-8.455-8.455-8.455h-24.031c-4.561 0-8.455 3.894-8.455 8.455v91.452c0 6.898-3.338 13.351-9.012 17.245-3.56 2.448-7.677 3.671-11.793 3.671-2.67 0-5.229-0.445-7.677-1.446-42.834-16.8-91.452-25.589-140.405-25.589-39.051 0-77.212 5.452-113.147 16.243-6.342 1.891-13.239 0.668-18.468-3.226-5.34-4.005-8.344-10.013-8.344-16.688v-81.551c0-4.561-3.894-8.455-8.455-8.455h-24.031c-4.561 0-8.455 3.894-8.455 8.455v121.603c0 5.007-2.559 9.679-6.898 12.238-28.593 17.022-52.179 37.493-69.869 60.857-2.67 3.449-6.898 5.563-11.348 5.563h-66.086c-23.364 0-42.389 19.025-42.389 42.389v41.165c0 23.364 19.025 42.389 42.389 42.389h3.894c19.47-0.111 39.385-0.223 55.517 25.033 18.468 29.038 28.259 61.191 37.716 92.342 6.23 20.805 12.349 40.72 20.694 59.299l10.236-17.69c5.452-9.457 13.128-17.467 22.251-23.141 5.007-3.115 11.348-3.449 16.466-0.779 49.509 24.81 107.696 37.938 168.33 37.938 161.321 0 292.492-92.899 292.492-207.047 0-50.288-26.145-98.907-73.429-136.845zM573.97 565.375c-37.271 5.118-70.87 5.563-105.916 1.335-5.785-0.668-9.791-5.897-9.123-11.571 0.668-5.785 5.897-9.791 11.571-9.123 33.266 4.005 65.196 3.671 100.575-1.224 0.445-0.111 1.001-0.111 1.446-0.111 5.118 0 9.568 3.783 10.347 9.012 0.779 5.674-3.226 10.903-8.9 11.682z" />
<glyph unicode="&#xe946;" glyph-name="track-invites" d="M774.119 741.271h-82.552c-1.224 0-2.448-0.223-3.56-0.445-6.453 17.022-23.475 29.149-43.279 29.149h-39.941c-8.567 36.158-39.607 69.090-88.894 69.090-51.4 0-80.772-33.822-88.894-69.090h-39.83c-20.137 0-37.271-12.572-43.501-30.039-1.78 0.89-3.783 1.335-6.008 1.335h-79.882c-7.677 0-13.796-6.23-13.796-13.796v-567.628c0-7.677 6.23-13.796 13.796-13.796h516.339c7.677 0 13.796 6.23 13.796 13.796v567.628c0 7.677-6.119 13.796-13.796 13.796zM369.481 725.361c0 8.9 7.899 16.132 17.69 16.132h51.957c7.343 0 13.573 5.674 14.13 13.017 1.78 20.805 17.022 56.073 62.637 56.073 42.5 0 60.746-33.599 62.637-56.073 0.668-7.343 6.787-13.017 14.13-13.017h51.957c9.679 0 17.69-7.232 17.69-16.132v-49.731h-292.826v49.731zM271.576 173.754v539.925h65.975c1.224 0 2.336 0.111 3.449 0.445v-52.735c0-7.899 6.342-14.241 14.241-14.241h321.419c7.899 0 14.241 6.342 14.241 14.241v52.29c0.223 0 0.445 0 0.668 0h68.756v-539.925h-488.748zM543.040 755.623c0-14.255-12.104-25.811-27.035-25.811s-27.035 11.556-27.035 25.811c0 14.255 12.104 25.811 27.035 25.811s27.035-11.556 27.035-25.811zM427.557 608.431l-58.743-56.741-19.359 14.352c-6.787 4.895-16.243 3.894-21.695-2.559-2.559-3.226-3.783-7.232-3.338-11.348 0.445-4.005 2.559-7.677 6.008-10.347l30.373-22.696c2.893-1.891 6.008-2.893 9.234-2.893 3.671 0 7.12 1.224 10.569 3.783 0.223 0.223 0.556 0.445 0.779 0.668l68.2 66.086c3.115 2.893 4.784 6.787 4.784 10.903s-1.669 8.010-4.784 10.903c-6.23 5.785-15.798 5.785-22.029-0.111zM669.761 599.753h-156.203c-7.899 0-14.241-6.342-14.241-14.241s6.342-14.241 14.241-14.241h156.203c7.899 0 14.241 6.342 14.241 14.241s-6.342 14.241-14.241 14.241zM669.761 557.921h-156.203c-7.899 0-14.241-6.342-14.241-14.241 0-7.788 6.342-14.241 14.241-14.241h156.203c7.899 0 14.241 6.342 14.241 14.241s-6.342 14.241-14.241 14.241zM330.43 390.258l30.373-22.362c2.781-1.891 6.008-3.004 9.234-3.004 4.339 0 8.010 1.446 11.126 4.339l68.2 66.086c3.115 2.893 4.784 6.787 4.784 10.903s-1.669 8.010-4.784 10.903c-6.119 5.897-15.687 5.785-21.917 0l-58.743-56.741-19.581 14.575c-6.898 4.673-16.021 3.449-21.695-3.226-5.118-6.787-3.783-16.132 3.004-21.472zM669.761 448.334h-156.203c-7.899 0-14.241-6.342-14.241-14.241s6.342-14.241 14.241-14.241h156.203c7.899 0 14.241 6.342 14.241 14.241-0.111 7.899-6.453 14.241-14.241 14.241zM669.761 406.613h-156.203c-7.899 0-14.241-6.342-14.241-14.241s6.342-14.241 14.241-14.241h156.203c7.899 0 14.241 6.342 14.241 14.241-0.111 7.788-6.453 14.241-14.241 14.241zM427.557 305.815l-58.743-56.741-19.359 14.352c-6.787 4.895-16.243 3.894-21.695-2.559-2.559-3.226-3.783-7.232-3.338-11.348 0.445-4.005 2.559-7.677 6.008-10.347l30.373-22.585c2.781-1.891 6.008-3.004 9.234-3.004 4.116 0 7.788 1.335 11.237 4.339l68.2 66.086c3.115 2.893 4.784 6.787 4.784 10.903s-1.669 8.010-4.784 10.903c-6.119 5.785-15.687 5.897-21.917 0zM669.65 297.026h-156.092c-7.899 0-14.241-6.342-14.241-14.241s6.342-14.241 14.241-14.241h156.203c7.899 0 14.241 6.342 14.241 14.241-0.111 7.899-6.453 14.241-14.352 14.241zM669.65 255.193h-156.092c-7.899 0-14.241-6.342-14.241-14.241s6.342-14.241 14.241-14.241h156.203c7.899 0 14.241 6.342 14.241 14.241s-6.453 14.241-14.352 14.241z" />
<glyph unicode="&#xe947;" glyph-name="email-invites" d="M803.936 689.759h-583.76c-28.815 0-52.179-23.475-52.179-52.179v-384.167c0-26.034 21.139-47.173 47.173-47.173h588.655c28.815 0 52.179 23.364 52.29 52.068v379.272c0 28.815-23.475 52.179-52.179 52.179zM638.387 467.692l185.686 165.549c1.558 1.335 2.67 2.893 3.449 4.673 0-0.111 0-0.223 0-0.334v-370.26l-189.135 200.372zM803.824 661.278c4.45 0 8.567-1.224 12.127-3.338-3.783 0.334-7.677-0.779-10.792-3.56l-290.934-259.115-295.607 259.115c-3.115 2.67-7.009 3.783-10.792 3.449 3.56 2.225 7.788 3.449 12.238 3.449h583.76zM196.367 267.098v370.482c0 0.111 0 0.223 0 0.223 0.779-1.78 2.003-3.449 3.56-4.784l187.133-163.991-190.693-201.93zM215.058 234.722c-2.893 0-5.785 0.668-8.233 1.891l201.596 213.5 96.57-84.666c2.67-2.336 6.008-3.56 9.346-3.56 3.449 0 6.787 1.224 9.457 3.56l93.233 83.108 198.814-210.608c-3.56-2.114-7.677-3.338-12.016-3.338h-588.767z" />
<glyph unicode="&#xe948;" glyph-name="warning" horiz-adv-x="1187" d="M592 960l-592-1024h1187.2l-595.2 1024zM665.6 636.8l-25.6-412.8h-73.6l-44.8 364.8 144 48zM640 48h-70.4l-9.6 54.4-6.4 41.6 99.2-6.4-6.4-48-6.4-41.6z" />
<glyph unicode="&#xe949;" glyph-name="cross-a" horiz-adv-x="988" d="M988.070 822.269l-113.778 119.766-377.263-383.251-335.345 401.216-125.754-113.778 359.298-389.24-395.228-401.216 77.848-83.836 413.193 383.251 389.24-419.181 83.836 71.86-371.275 443.135z" />
<glyph unicode="&#xe94a;" glyph-name="exit" horiz-adv-x="949" d="M829.19 730.224c-14.985 0-24.976-9.99-24.976-19.98v-24.976c0-9.99-4.995-14.985-14.985-14.985h-129.873c-9.99 0-14.985 4.995-14.985 14.985v214.79c0 9.99 4.995 14.985 14.985 14.985h129.873c9.99 0 14.985-4.995 14.985-14.985v-24.976c0-9.99 9.99-19.98 24.976-19.98s24.976 9.99 24.976 19.98v24.976c0 34.966-29.971 59.941-59.941 59.941h-129.873c-39.961 0-64.937-24.976-64.937-59.941v-219.785c0-34.966 29.971-59.941 59.941-59.941h129.873c34.966 0 59.941 24.976 59.941 59.941v24.976c4.995 14.985-9.99 24.976-19.98 24.976zM939.083 820.137l-29.971 29.971c-9.99 9.99-24.976 9.99-29.971 0-4.995-4.995-4.995-9.99-4.995-14.985s0-9.99 4.995-14.985l4.995-4.995h-134.868c-14.985 0-24.976-9.99-24.976-19.98s9.99-19.98 24.976-19.98h129.873l-4.995-4.995c-4.995-4.995-4.995-9.99-4.995-14.985s0-9.99 4.995-14.985c4.995-4.995 9.99-4.995 14.985-4.995s9.99 0 14.985 4.995l34.966 19.98c4.995 9.99 9.99 19.98 9.99 29.971s-4.995 19.98-9.99 29.971zM899.122 740.215v0 0 0zM594.42 335.61h-239.766c-194.81 0-354.654-159.844-354.654-354.654 0-24.976 19.98-44.956 44.956-44.956h854.166c24.976 0 44.956 19.98 44.956 44.956 4.995 194.81-154.849 354.654-349.659 354.654zM74.927 10.927c14.985 139.863 134.868 249.756 274.732 249.756h244.761c144.859 0 259.746-109.893 274.732-249.756h-794.224zM464.546 485.463c-109.893 0-199.805 89.912-199.805 199.805s89.912 199.805 199.805 199.805c44.956 0 89.912-14.985 119.883-44.956v89.912c-34.966 19.98-74.927 29.971-119.883 29.971-149.854 0-274.732-124.878-274.732-274.732s124.878-274.732 274.732-274.732c124.878 0 229.776 84.917 264.741 199.805h-79.922c-29.971-74.927-99.902-124.878-184.82-124.878z" />
<glyph unicode="&#xe94b;" glyph-name="info" d="M633.018 94.255h-37.236v474.764c0 18.618-18.618 37.236-37.236 37.236h-167.564c-18.618 0-37.236-18.618-37.236-37.236v-27.927c0-18.618 18.618-37.236 37.236-37.236h37.236v-409.6h-37.236c-18.618 0-37.236-18.618-37.236-37.236v-27.927c0-18.618 18.618-37.236 37.236-37.236h242.036c18.618 0 37.236 18.618 37.236 37.236v18.618c9.309 27.927-9.309 46.545-37.236 46.545zM623.709 801.745c0-61.695-50.014-111.709-111.709-111.709s-111.709 50.014-111.709 111.709c0 61.695 50.014 111.709 111.709 111.709s111.709-50.014 111.709-111.709z" />
<glyph unicode="&#xe94c;" glyph-name="close-circle" d="M512 960c-281.18 0-512-230.82-512-512s230.82-512 512-512 512 230.82 512 512c0 281.18-230.82 512-512 512zM696.656 317.902c16.787-16.787 16.787-41.967 0-54.557-16.787-16.787-41.967-16.787-54.557 0l-130.098 130.098-130.098-130.098c-16.787-16.787-41.967-16.787-54.557 0-8.393 8.393-12.59 16.787-12.59 29.377 0 8.393 4.197 20.984 12.59 29.377l130.098 130.098-130.098 125.902c-8.393 8.393-12.59 16.787-12.59 29.377s4.197 16.787 12.59 25.18c16.787 16.787 41.967 16.787 54.557 0l130.098-130.098 130.098 130.098c16.787 16.787 41.967 16.787 54.557 0s16.787-41.967 0-54.557l-130.098-130.098 130.098-130.098z" />
<glyph unicode="&#xe94d;" glyph-name="lock" horiz-adv-x="832" d="M729.6 608h-64v115.2c0 128-108.8 236.8-243.2 236.8-140.8 0-256-102.4-256-236.8v-115.2h-64c-57.6 0-102.4-44.8-102.4-102.4v-473.6c0-51.2 44.8-96 102.4-96h627.2c57.6 0 102.4 44.8 102.4 96v473.6c0 57.6-44.8 102.4-102.4 102.4zM454.4 300.8v-172.8c0-19.2-12.8-32-32-38.4-19.2 0-38.4 12.8-38.4 32v172.8c-32 12.8-51.2 44.8-44.8 76.8 0 44.8 32 76.8 70.4 76.8 51.2 0 89.6-32 89.6-76.8 0-32-19.2-57.6-44.8-70.4zM595.2 608h-358.4v115.2c0 44.8 19.2 89.6 57.6 121.6 32 32 76.8 51.2 121.6 51.2s89.6-19.2 121.6-51.2c38.4-32 57.6-76.8 57.6-121.6v-115.2z" />
<glyph unicode="&#xe94e;" glyph-name="tiktok" horiz-adv-x="884" d="M655.655 934.216c7.367-62.619 29.468-114.187 62.619-147.338s81.036-55.252 139.971-58.935c14.734 0 22.101-11.050 22.101-25.784v-154.705c0-14.734-11.050-25.784-25.784-25.784-40.518-3.683-81.036 0-117.871 14.734-25.784 7.367-51.568 18.417-81.036 33.151v-246.791c0-117.871-36.835-209.957-95.77-276.259-44.201-47.885-95.77-81.036-154.705-99.453s-117.871-18.417-176.806 0c-69.986 22.101-136.288 66.302-184.173 143.655-25.784 51.568-40.518 110.504-44.201 169.439 0 55.252 7.367 110.504 33.151 162.072s62.619 95.77 117.871 132.604c55.252 33.151 121.554 55.252 209.957 58.935 14.734 0 25.784-11.050 25.784-25.784v-165.755c0-14.734-11.050-22.101-22.101-25.784s-25.784-3.683-36.835-7.367c-11.050-3.683-22.101-7.367-33.151-11.050-33.151-7.367-58.935-22.101-73.669-44.201-14.734-18.417-18.417-47.885-14.734-81.036 7.367-47.885 40.518-81.036 81.036-95.77 18.417-7.367 36.835-7.367 51.568-7.367 18.417 0 33.151 7.367 47.885 18.417 36.835 25.784 62.619 84.719 55.252 184.173v581.986c0 14.734 11.050 25.784 25.784 25.784h162.072c14.734 0 25.784-11.050 25.784-25.784v0zM685.122 753.727c-36.835 36.835-62.619 92.086-73.669 154.705h-114.187v-556.201c7.367-117.871-25.784-191.54-77.353-224.691-22.101-14.734-47.885-25.784-73.669-25.784-25.784-3.683-51.568 0-73.669 7.367-58.935 18.417-106.82 69.986-117.871 136.288-7.367 47.885 3.683 88.403 25.784 117.871s55.252 51.568 95.77 66.302c11.050 3.683 25.784 7.367 40.518 11.050 7.367 0 14.734 3.683 22.101 3.683v114.187c-66.302-3.683-117.871-22.101-158.388-47.885-47.885-29.468-81.036-66.302-99.453-110.504-22.101-44.201-29.468-92.086-29.468-139.971 0-51.568 14.734-103.137 40.518-143.655 40.518-66.302 95.77-103.137 154.705-121.554 47.885-14.734 99.453-11.050 147.338 0 47.885 14.734 92.086 44.201 128.921 84.719 51.568 55.252 84.719 139.971 84.719 243.108v290.993c0 3.683 0 7.367 3.683 11.050 7.367 11.050 22.101 14.734 33.151 7.367 36.835-22.101 73.669-40.518 106.82-51.568 25.784-7.367 51.568-11.050 77.353-11.050v110.504c-55.252 11.050-106.82 33.151-143.655 73.669v0z" />
<glyph unicode="&#xe94f;" glyph-name="chevron-down-r" horiz-adv-x="1733" d="M173.292 928.492c-31.508 31.508-78.769 47.262-126.031 15.754-47.262-15.754-63.015-78.769-31.508-110.277l740.431-834.954c31.508-15.754 47.262-63.015 110.277-63.015s78.769 31.508 110.277 63.015l740.431 834.954c31.508 31.508 15.754 78.769-31.508 110.277s-94.523 15.754-126.031-15.754l-693.169-803.446-693.169 803.446z" />
<glyph unicode="&#xe950;" glyph-name="check-r" horiz-adv-x="863" d="M345.169-52.494c46.022-23.011 115.056 0 126.562 46.022l368.18 816.899c23.011 46.022 0 115.056-46.022 126.562-46.022 23.011-115.056 0-126.562-46.022l-299.146-667.326-184.090 230.112c-34.517 34.517-103.551 46.022-149.573 11.506s-46.022-103.551-11.506-138.067l264.629-322.157c11.506-23.011 46.022-46.022 57.528-57.528z" />
<glyph unicode="&#xe951;" glyph-name="cross-r" horiz-adv-x="1014" d="M984.99 111.543l-341.333 341.333 331.581 341.333c39.010 39.010 39.010 97.524 0 136.533s-97.524 39.010-136.533 0l-341.333-341.333-321.829 331.581c-39.010 39.010-107.276 39.010-146.286 0s-39.010-97.524 0-136.533l331.581-331.581-331.581-331.581c-39.010-39.010-39.010-97.524 0-136.533s97.524-39.010 136.533 0l331.581 331.581 341.333-341.333c39.010-39.010 97.524-39.010 136.533 0 48.762 29.257 48.762 97.524 9.752 136.533z" />
<glyph unicode="&#xe952;" glyph-name="menu-r" horiz-adv-x="1602" d="M113.778 722.963h1374.815c66.37 0 113.778 56.889 113.778 113.778s-47.407 123.259-113.778 123.259h-1374.815c-56.889 0-113.778-56.889-113.778-113.778s56.889-123.259 113.778-123.259zM1488.593 571.259h-1374.815c-56.889 0-113.778-56.889-113.778-123.259s56.889-113.778 113.778-113.778h1374.815c66.37 0 113.778 56.889 113.778 113.778 0 66.37-47.407 123.259-113.778 123.259zM1488.593 173.037h-1374.815c-56.889 0-113.778-47.407-113.778-113.778s56.889-113.778 113.778-113.778h1374.815c66.37 0 113.778 56.889 113.778 113.778s-47.407 113.778-113.778 113.778z" />
<glyph unicode="&#xe9d7;" glyph-name="star-empty" d="M1024 562.95l-353.78 51.408-158.22 320.582-158.216-320.582-353.784-51.408 256-249.538-60.432-352.352 316.432 166.358 316.432-166.358-60.434 352.352 256.002 249.538zM512 206.502l-223.462-117.48 42.676 248.83-180.786 176.222 249.84 36.304 111.732 226.396 111.736-226.396 249.836-36.304-180.788-176.222 42.678-248.83-223.462 117.48z" />
<glyph unicode="&#xe9d8;" glyph-name="star-half" d="M1024 562.95l-353.78 51.408-158.22 320.582-158.216-320.582-353.784-51.408 256-249.538-60.432-352.352 316.432 166.358 316.432-166.358-60.434 352.352 256.002 249.538zM512 206.502l-0.942-0.496 0.942 570.768 111.736-226.396 249.836-36.304-180.788-176.222 42.678-248.83-223.462 117.48z" />
<glyph unicode="&#xe9d9;" glyph-name="star-full" d="M1024 562.95l-353.78 51.408-158.22 320.582-158.216-320.582-353.784-51.408 256-249.538-60.432-352.352 316.432 166.358 316.432-166.358-60.434 352.352 256.002 249.538z" />
</font>
</defs>
</svg>
